<?xml version="1.0" standalone="no"?>
<!DOCTYPE svg PUBLIC "-//W3C//DTD SVG 1.1//EN" "http://www.w3.org/Graphics/SVG/1.1/DTD/svg11.dtd" >
<svg xmlns="http://www.w3.org/2000/svg">
<metadata>Generated by IcoMoon</metadata>
<defs>
<font id="MobiriseIcons" horiz-adv-x="1024">
<font-face units-per-em="1024" ascent="960" descent="-64" />
<missing-glyph horiz-adv-x="1024" />
<glyph unicode="&#x20;" horiz-adv-x="512" d="" />
<glyph unicode="&#xe900;" glyph-name="mbri-add-submenu" d="M85.333 874.667c-46.933 0-85.333-38.4-85.333-85.333v-42.667c0-46.933 38.4-85.333 85.333-85.333h682.667c46.933 0 85.333 38.4 85.333 85.333v42.667c0 46.933-38.4 85.333-85.333 85.333h-682.667zM85.333 832h682.667c24.021 0 42.667-18.645 42.667-42.667v-42.667c0-24.021-18.645-42.667-42.667-42.667h-682.667c-24.021 0-42.667 18.645-42.667 42.667v42.667c0 24.021 18.645 42.667 42.667 42.667zM85.333 256.555v-85.333c0-11.179 10.155-21.333 21.333-21.333h205.355l-49.365-48c-19.712-19.755 11.093-48.896 29.355-30.72l85.333 85.333c8.192 7.979 8.192 22.784 0 30.72l-85.333 85.333c-17.493 17.493-48.981-11.093-29.355-30.72l49.365-49.28h-184.021v64c0 28.928-42.667 27.904-42.667 0zM554.667 277.333c-46.933 0-85.333-38.4-85.333-85.333v-42.667c0-46.933 38.4-85.333 85.333-85.333h384c46.933 0 85.333 38.4 85.333 85.333v42.667c0 46.933-38.4 85.333-85.333 85.333h-384zM554.667 234.667h384c24.021 0 42.667-18.645 42.667-42.667v-42.667c0-24.021-18.645-42.667-42.667-42.667h-384c-24.021 0-42.667 18.645-42.667 42.667v42.667c0 24.021 18.645 42.667 42.667 42.667zM85.333 576c-46.933 0-85.333-38.4-85.333-85.333v-42.667c0-46.933 38.4-85.333 85.333-85.333h682.667c46.933 0 85.333 38.4 85.333 85.333v42.667c0 46.933-38.4 85.333-85.333 85.333h-682.667zM85.333 533.333h682.667c24.021 0 42.667-18.645 42.667-42.667v-42.667c0-24.021-18.645-42.667-42.667-42.667h-682.667c-24.021 0-42.667 18.645-42.667 42.667v42.667c0 24.021 18.645 42.667 42.667 42.667z" />
<glyph unicode="&#xe901;" glyph-name="mbri-alert" d="M426.667 0c0-38.187 38.272-64 85.333-64 47.019 0 85.333 25.813 85.333 64 0 28.373-42.667 27.733-42.667 0 0-4.523-12.288-21.333-42.667-21.333-30.293 0-42.667 16.981-42.667 21.333 0 28.331-42.667 27.733-42.667 0zM512 960c-73.088 0-128-51.2-128-106.667 0-29.269 42.667-26.88 42.667 0s32 64 85.333 64 85.333-36.864 85.333-64c0-27.861 42.667-28.587 42.667 0 0 55.552-54.955 106.667-128 106.667zM234.667 832h-21.333c-70.955 0-128-57.045-128-128v-21.333c0.128-11.264-10.069-21.333-21.333-21.333-11.307 0-21.504 10.069-21.333 21.333v21.333c0 93.995 76.629 170.667 170.667 170.667h21.333c14.336 0 21.419-10.667 21.333-21.333s-7.253-21.333-21.333-21.333zM789.333 832h21.333c70.955 0 128-57.045 128-128v-21.333c-0.171-11.264 10.069-21.333 21.333-21.333s21.504 10.069 21.333 21.333v21.333c0 93.995-76.672 170.667-170.667 170.667h-21.333c-14.379 0-21.419-10.667-21.333-21.333 0-10.667 7.253-21.333 21.333-21.333zM512 789.333c-107.861 0-186.88-47.104-235.947-116.053-49.195-68.821-62.72-157.867-62.72-246.613 0-167.339-44.459-243.883-122.667-326.656-11.093-11.733-2.987-36.011 16-36.011h810.667c19.627 0 27.307 24.021 16 36.011-78.208 82.773-122.667 159.317-122.667 326.656 0 88.747-13.568 177.749-62.72 246.613-49.067 68.992-128 116.053-235.947 116.053zM512 746.667c96 0 159.147-38.187 201.387-97.28 42.069-59.221 54.613-140.8 54.613-222.72 0-152.32 45.312-240.725 109.355-320h-730.667c64 79.275 109.312 167.68 109.312 320 0 82.005 12.501 163.541 54.613 222.72 42.24 59.051 105.387 97.28 201.387 97.28z" />
<glyph unicode="&#xe902;" glyph-name="mbri-align-center" d="M21.333 149.333h981.333c29.013 0 27.605-42.667 0-42.667h-981.333c-27.52 0-28.715 42.667 0 42.667zM277.333 362.667h469.333c28.715 0 27.904-42.667 0-42.667h-469.333c-27.733 0-28.587 42.667 0 42.667zM21.333 576h981.333c27.733 0 29.013-42.667 0-42.667h-981.333c-27.947 0-28.416 42.667 0 42.667zM277.333 789.333h469.333c28.16 0 28.16-42.667 0-42.667h-469.333c-27.861 0-28.373 42.667 0 42.667z" />
<glyph unicode="&#xe903;" glyph-name="mbri-align-justify" d="M21.333 149.333h981.333c29.013 0 27.605-42.667 0-42.667h-981.333c-27.52 0-28.715 42.667 0 42.667zM21.333 362.667h981.333c28.715 0 27.904-42.667 0-42.667h-981.333c-27.733 0-28.587 42.667 0 42.667zM21.333 576h981.333c27.733 0 29.013-42.667 0-42.667h-981.333c-27.947 0-28.416 42.667 0 42.667zM21.333 789.333h981.333c28.16 0 28.16-42.667 0-42.667h-981.333c-27.861 0-28.373 42.667 0 42.667z" />
<glyph unicode="&#xe904;" glyph-name="mbri-align-left" d="M21.333 149.333h554.667c29.013 0 27.605-42.667 0-42.667h-554.667c-27.52 0-28.715 42.667 0 42.667zM21.333 362.667h981.333c28.715 0 27.904-42.667 0-42.667h-981.333c-27.733 0-28.587 42.667 0 42.667zM21.333 576h554.667c27.733 0 29.013-42.667 0-42.667h-554.667c-27.947 0-28.416 42.667 0 42.667zM21.333 789.333h981.333c28.16 0 28.16-42.667 0-42.667h-981.333c-27.861 0-28.373 42.667 0 42.667z" />
<glyph unicode="&#xe905;" glyph-name="mbri-align-right" d="M1006.933 174.933h-580.267c-23.211 0-22.084-34.133 0-34.133h580.267c22.016 0 22.972 34.133 0 34.133zM1006.933 379.733h-989.867c-22.972 0-22.323-34.133 0-34.133h989.867c22.187 0 22.869 34.133 0 34.133zM1006.933 584.533h-580.267c-22.187 0-23.211-34.133 0-34.133h580.267c22.357 0 22.733 34.133 0 34.133zM1006.933 789.333h-989.867c-22.528 0-22.528-34.133 0-34.133h989.867c22.289 0 22.699 34.133 0 34.133z" />
<glyph unicode="&#xe906;" glyph-name="mbri-android" d="M841.387 914.773c-10.496 5.248-23.040 1.28-28.331-9.216l-85.461-170.667c-5.248-10.581-1.024-23.339 9.472-28.587 10.539-5.333 23.296-1.067 28.587 9.472l85.419 170.667c5.12 10.24 0.853 23.040-9.643 28.288zM182.613 914.773c10.496 5.248 23.040 1.28 28.331-9.216l85.461-170.667c5.248-10.581 1.024-23.339-9.472-28.587-10.539-5.333-23.296-1.067-28.587 9.472l-85.419 170.667c-4.949 9.899-0.853 23.040 9.643 28.288zM512 704c-244.139 0-445.568-156.288-507.989-377.344-13.525-60.757 11.179-91.989 67.968-91.989h880c56.832 0 81.493 31.232 68.011 91.989-62.421 221.013-263.851 377.344-507.989 377.344zM512 661.333c224.128 0 411.093-143.36 468.053-346.667 6.656-25.003 1.493-37.333-28.032-37.333h-880c-29.568 0-34.731 12.373-28.032 37.333 56.96 203.307 243.925 346.667 468.011 346.667zM64 192c-35.072 0-64-28.928-64-64v-85.333c0-35.072 28.928-64 64-64h896c35.072 0 64 28.928 64 64v85.333c0 35.072-28.928 64-64 64zM64 149.333h896c12.203 0 21.333-9.131 21.333-21.333v-85.333c0-12.203-9.131-21.333-21.333-21.333h-896c-12.203 0-21.333 9.131-21.333 21.333v85.333c0 12.203 9.131 21.333 21.333 21.333zM704 533.333c-35.072 0-64-28.928-64-64v-85.333c0-35.072 28.928-64 64-64s64 28.928 64 64v85.333c0 35.072-28.928 64-64 64zM704 490.667c12.203 0 21.333-9.131 21.333-21.333v-85.333c0-12.203-9.131-21.333-21.333-21.333s-21.333 9.131-21.333 21.333v85.333c0 12.203 9.131 21.333 21.333 21.333zM320 533.333c-35.072 0-64-28.928-64-64v-85.333c0-35.072 28.928-64 64-64s64 28.928 64 64v85.333c0 35.072-28.928 64-64 64zM320 490.667c12.203 0 21.333-9.131 21.333-21.333v-85.333c0-12.203-9.131-21.333-21.333-21.333s-21.333 9.131-21.333 21.333v85.333c0 12.203 9.131 21.333 21.333 21.333z" />
<glyph unicode="&#xe907;" glyph-name="mbri-apple" d="M661.333 960c-118.059 0-192-96-192-192 0-11.776 9.557-21.333 21.333-21.333 96 0 192 73.941 192 192 0 11.776-9.557 21.333-21.333 21.333zM634.581 911.915c-10.837-62.891-56.747-96.683-109.568-109.568 12.885 52.779 46.677 98.731 109.568 109.568zM341.333 746.667c-69.547 0-135.253-27.989-181.931-85.333-46.592-57.344-74.069-142.507-74.069-256 0-114.859 38.4-229.675 88.064-317.099 24.832-43.691 52.48-80.555 80.512-107.307 28.117-26.795 56.619-44.928 87.424-44.928 46.208 0 77.483 12.245 101.973 23.168 24.576 10.923 41.387 19.499 68.693 19.499s44.117-8.533 68.693-19.499c24.491-10.923 55.765-23.168 101.973-23.168 24.192 0 46.677 12.16 70.4 29.867 23.765 17.792 48.341 42.24 72.107 71.253 47.531 58.197 91.733 134.827 112.725 213.333 2.56 9.6-1.707 19.627-10.496 24.32-56.32 30.293-74.069 70.827-74.069 130.56 0 59.605 18.347 100.267 74.155 130.56 8.661 4.693 12.971 14.763 10.411 24.32-15.872 59.307-56.064 105.941-103.467 137.557-47.36 31.573-102.187 48.896-151.765 48.896-46.208 0-73.515-12.928-94.848-23.595s-36.693-19.072-75.819-19.072c-39.125 0-54.485 8.405-75.819 19.072s-48.64 23.595-94.848 23.595zM341.333 704c39.125 0 54.485-8.405 75.819-19.072s48.64-23.595 94.848-23.595 73.515 12.928 94.848 23.595c21.333 10.667 36.693 19.072 75.819 19.072 39.339 0 87.467-14.677 128.085-41.813 37.547-25.003 66.731-59.563 81.152-102.144-53.632-37.376-81.237-91.989-81.237-154.709 0-62.933 27.307-119.381 81.92-156.715-20.053-67.413-58.539-133.205-100.437-184.448-22.016-26.88-44.629-49.152-64.555-64.085-19.968-14.933-37.547-21.419-44.928-21.419-39.125 0-61.184 9.088-84.651 19.499-23.467 10.368-49.323 23.168-86.016 23.168s-62.549-12.8-86.016-23.168c-23.467-10.411-45.525-19.499-84.651-19.499-11.819 0-33.963 10.325-57.899 33.152-23.979 22.869-49.664 56.747-72.832 97.493-46.336 81.664-82.603 190.848-82.603 296.021 0 106.581 25.856 181.461 64.597 229.12 38.656 47.573 90.283 69.547 148.736 69.547z" />
<glyph unicode="&#xe908;" glyph-name="mbri-arrow-down" d="M987.563 697.259l-426.667-426.155c-17.792-17.835 8.107-50.773 30.208-30.165l426.667 426.24c19.072 19.072-11.093 49.195-30.208 30.080zM6.229 667.093l469.333-469.333c18.773-18.773 49.621 10.752 30.165 30.208l-469.333 469.333c-20.053 20.053-49.152-11.179-30.123-30.208z" />
<glyph unicode="&#xe909;" glyph-name="mbri-arrow-next" d="M262.272-57.728c-8.363 8.363-8.363 21.76 0 30.165l426.155 426.667c8.363 8.32 21.76 8.32 30.165 0 8.363-8.405 8.363-21.845 0-30.208l-426.24-426.667c-8.277-8.32-21.76-8.32-30.080 0zM262.272 953.728c8.363 8.363 21.76 8.363 30.165 0l469.333-469.333c8.32-8.277 8.32-21.76 0-30.123-8.405-8.363-21.845-8.363-30.208 0l-469.333 469.333c-8.32 8.32-8.32 21.76 0 30.123z" />
<glyph unicode="&#xe90a;" glyph-name="mbri-arrow-prev" d="M761.728-57.728c8.363 8.363 8.363 21.76 0 30.165l-426.496 426.496c-8.363 8.32-21.76 8.32-30.165 0-8.363-8.405-8.363-21.845 0-30.208l426.539-426.453c8.32-8.363 21.76-8.363 30.123 0zM761.728 953.728c-8.363 8.363-21.76 8.363-30.165 0l-469.333-469.333c-8.32-8.277-8.32-21.76 0-30.123 8.405-8.363 21.845-8.363 30.208 0l469.333 469.333c8.32 8.32 8.32 21.76 0 30.123z" />
<glyph unicode="&#xe90b;" glyph-name="mbri-arrow-up" d="M987.563 198.272l-426.667 426.155c-17.792 17.835 8.107 50.773 30.208 30.165l426.667-426.24c19.072-19.029-11.093-49.195-30.208-30.080zM6.229 228.437l469.333 469.333c18.773 18.773 49.621-10.667 30.165-30.208l-469.333-469.333c-20.053-20.053-49.152 11.179-30.123 30.208z" />
<glyph unicode="&#xe90c;" glyph-name="mbri-bold" d="M213.333 938.411v-981.077c0-11.179 10.155-21.333 21.333-21.333h277.333c187.947 0 341.333 142.251 341.333 320 0 96.427-48.64 179.968-119.979 238.421 44.971 49.92 77.312 116.053 77.312 188.245 0 153.259-124.075 277.333-277.333 277.333h-298.667c-14.848 0-21.333-9.472-21.333-21.589zM256 917.333h277.333c130.389 0 234.667-104.277 234.667-234.667 0-65.707-31.744-130.731-75.947-173.653-9.387-8.661-8.021-26.155 2.645-33.28 71.125-50.859 116.053-130.005 116.053-219.733 0-153.173-132.139-277.163-298.752-277.333h-256zM341.333 426.667v-341.333c0-11.179 10.155-21.333 21.333-21.333h170.667c105.984 0 192 86.016 192 192s-86.016 192-192 192h-170.667c-14.080 0-21.333-9.813-21.333-21.333zM384 405.333h149.333c83.115 0 149.333-66.219 149.333-149.333s-66.219-149.333-149.333-149.333h-149.333zM341.333 810.667v-256c0-11.179 10.155-21.333 21.333-21.333h160c87.467 0 160 66.005 160 149.333s-72.533 149.333-160 149.333h-160c-13.227 0-21.333-10.155-21.333-21.333zM384 789.333h138.667c66.304 0 117.333-48.213 117.333-106.667s-51.072-106.667-117.333-106.667h-138.667z" />
<glyph unicode="&#xe90d;" glyph-name="mbri-bookmark" d="M106.667 960c-35.072 0-64-28.928-64-64v-917.333c0-8.96 2.048-18.901 8.021-26.667s16.085-12.544 25.301-14.677c18.56-4.139 36.949 1.92 61.44 12.032l374.443 154.667 374.827-154.667c26.027-9.387 42.88-16.213 61.44-11.947 9.173 2.133 19.328 6.827 25.301 14.635 5.973 7.765 7.979 17.749 7.979 26.667v917.291c0 35.072-28.928 64-64 64zM106.667 917.333h810.667c12.203 0 21.333-9.131 21.333-21.333v-917.333c-2.901-0.683-14.507 0.427-33.28 9.387l-384.213 158.635c-5.888 2.859-12.8 2.859-18.688 0l-383.829-158.72c-18.773-8.832-30.379-9.984-33.28-9.301v917.333c0 12.203 9.131 21.333 21.333 21.333zM234.667 789.333c-11.819 0-21.333-9.515-21.333-21.333s9.515-21.333 21.333-21.333h554.667c11.819 0 21.333 9.515 21.333 21.333s-9.515 21.333-21.333 21.333zM234.667 661.333c-11.819 0-21.333-9.515-21.333-21.333s9.515-21.333 21.333-21.333h554.667c11.819 0 21.333 9.515 21.333 21.333s-9.515 21.333-21.333 21.333zM234.667 533.333c-11.819 0-21.333-9.515-21.333-21.333s9.515-21.333 21.333-21.333h554.667c11.819 0 21.333 9.515 21.333 21.333s-9.515 21.333-21.333 21.333z" />
<glyph unicode="&#xe90e;" glyph-name="mbri-bootstrap" d="M64 960c-35.072 0-64-28.928-64-64v-896c0-35.072 28.928-64 64-64h896c35.072 0 64 28.928 64 64v896c0 35.072-28.928 64-64 64zM64 917.333h896c12.203 0 21.333-9.131 21.333-21.333v-896c0-12.203-9.131-21.333-21.333-21.333h-896c-12.203 0-21.333 9.131-21.333 21.333v896c0 12.203 9.131 21.333 21.333 21.333zM341.333 725.333v-512c0-11.179 10.155-21.333 21.333-21.333h128c46.293 0 93.867 10.923 130.688 38.656 36.779 27.733 61.312 73.387 61.312 132.011 0 59.819-25.344 92.843-38.656 107.947 12.629 16.299 38.656 48.043 38.656 105.387 0 58.368-28.075 102.827-64 130.688s-81.707 39.979-128 39.979h-128c-15.573 0-21.333-9.216-21.333-21.333zM384 704c11.861-0.085 35.499 0 106.667 0 39.040 0 76.459-10.325 102.656-30.72 26.197-20.267 46.677-49.92 46.677-97.28 0-59.648-36.011-91.989-36.011-91.989-8.192-7.936-8.192-22.741 0-30.72 0 0 36.011-31.787 36.011-90.624 0-47.147-18.133-76.8-45.355-97.28-27.179-20.48-64.939-30.72-103.979-30.72-71.168 0-94.805 0.085-106.667 0zM426.667 640v-128c0-11.179 10.155-21.333 21.333-21.333h64c19.2 0 39.125 5.845 56.021 20.053 16.853 14.080 29.312 37.248 29.312 65.28 0 27.861-12.501 51.2-29.355 65.28-16.811 14.251-36.779 20.053-55.979 20.053h-64c-13.312 0-21.333-7.339-21.333-21.333zM469.333 618.667h42.667c9.515 0 21.333-3.925 29.355-10.667 7.979-6.741 13.312-15.36 13.312-32 0-17.067-5.461-25.387-13.355-32-7.851-6.613-19.371-10.667-29.312-10.667h-42.667zM426.667 426.667v-128c0-11.179 10.155-21.333 21.333-21.333h64c19.2 0 39.168 5.845 56.021 20.053 16.811 14.080 29.312 37.419 29.312 65.28 0 28.032-12.459 51.2-29.355 65.28-16.853 14.208-36.779 20.053-55.979 20.053h-64c-12.8 0-21.333-9.387-21.333-21.333zM469.333 405.333h42.667c9.941 0 21.461-4.053 29.355-10.667 7.851-6.613 13.312-14.933 13.312-32 0-16.64-5.333-25.259-13.355-32-7.979-6.741-19.797-10.667-29.312-10.667h-42.667z" />
<glyph unicode="&#xe90f;" glyph-name="mbri-briefcase" d="M91.52 613.419c-7.765-7.765-9.173-21.845 1.28-32.341l169.941-169.216c23.979-23.979 49.067-40.832 78.592-46.592v-23.979c0-11.819 9.515-21.333 21.333-21.333s21.333 9.515 21.333 21.333v21.376h256v-21.333c0-11.819 9.515-21.333 21.333-21.333s21.248 9.515 21.333 21.333l0.213 23.979c29.568 5.76 54.699 22.613 78.677 46.592l169.387 169.173c9.557 9.557 10.411 22.869 1.28 32-9.045 9.045-21.632 6.272-30.635-2.731l-169.387-169.173c-18.56-18.517-33.28-28.8-49.579-33.28l0.213 18.773c0.128 11.819-9.728 21.333-21.547 21.333s-21.333-9.515-21.333-21.333v-21.333h-255.957v21.333c0 11.819-9.515 21.333-21.333 21.333s-21.333-9.515-21.333-21.333v-18.773c-16.341 4.48-30.72 14.763-49.28 33.28l-169.813 169.216c-9.088 8.96-23.040 10.752-30.72 2.987zM362.667 874.667c-35.072 0-64-28.928-64-64v-42.667c-0.171-11.264 10.069-21.333 21.333-21.333s21.504 10.069 21.333 21.333v42.667c0 12.203 9.131 21.333 21.333 21.333h298.667c12.203 0 21.333-9.131 21.333-21.333v-42.667c-0.171-11.264 10.069-21.333 21.333-21.333s21.504 10.069 21.333 21.333v42.667c0 35.072-28.928 64-64 64zM64 704c-35.072 0-64-28.928-64-64v-554.667c0-35.072 28.928-64 64-64h896c35.072 0 64 28.928 64 64v554.667c0 35.072-28.928 64-64 64zM64 661.333h896c12.203 0 21.333-9.131 21.333-21.333v-554.667c0-12.203-9.131-21.333-21.333-21.333h-896c-12.203 0-21.333 9.131-21.333 21.333v554.667c0 12.203 9.131 21.333 21.333 21.333z" />
<glyph unicode="&#xe910;" glyph-name="mbri-browse" d="M64 832c-35.072 0-64-28.928-64-64v-640c0-35.072 28.928-64 64-64h896c35.072 0 64 28.928 64 64v640c0 35.072-28.928 64-64 64h-896zM64 789.333h896c12.203 0 21.333-9.131 21.333-21.333v-640c0-12.203-9.131-21.333-21.333-21.333h-896c-12.203 0-21.333 9.131-21.333 21.333v640c0 12.203 9.131 21.333 21.333 21.333zM106.667 746.667c-11.776 0-21.333-9.557-21.333-21.333s9.557-21.333 21.333-21.333 21.333 9.557 21.333 21.333-9.557 21.333-21.333 21.333zM192 746.667c-11.776 0-21.333-9.557-21.333-21.333s9.557-21.333 21.333-21.333 21.333 9.557 21.333 21.333-9.557 21.333-21.333 21.333zM277.333 746.667c-11.776 0-21.333-9.557-21.333-21.333s9.557-21.333 21.333-21.333 21.333 9.557 21.333 21.333-9.557 21.333-21.333 21.333zM106.667 661.333c-11.819 0-21.333-9.515-21.333-21.333s9.515-21.333 21.333-21.333h810.667c11.819 0 21.333 9.515 21.333 21.333s-9.515 21.333-21.333 21.333h-810.667z" />
<glyph unicode="&#xe911;" glyph-name="mbri-bulleted-list" d="M1002.325 106.667h-682.667c-28.16 0-27.733 42.667 0 42.667h682.667c28.075 0 28.032-42.667 0-42.667zM1002.667 448h-682.667c-28.16 0-27.733 42.667 0 42.667h682.667c28.075 0 28.032-42.667 0-42.667zM106.667 234.667c-58.709 0-106.667-47.957-106.667-106.667s47.957-106.667 106.667-106.667 106.667 47.957 106.667 106.667-47.957 106.667-106.667 106.667zM106.667 192c35.84 0 64-28.16 64-64s-28.16-64-64-64-64 28.16-64 64 28.16 64 64 64zM106.667 575.445c-58.709 0-106.667-47.915-106.667-106.667 0-58.709 47.957-106.667 106.667-106.667s106.667 47.915 106.667 106.667c0 58.752-47.957 106.667-106.667 106.667zM106.667 532.779c35.84 0 64-28.16 64-64s-28.16-64-64-64-64 28.16-64 64 28.16 64 64 64zM106.667 917.333c-58.709 0-106.667-47.957-106.667-106.667s47.957-106.667 106.667-106.667 106.667 47.957 106.667 106.667-47.957 106.667-106.667 106.667zM106.667 874.667c35.84 0 64-28.16 64-64s-28.16-64-64-64-64 28.16-64 64 28.16 64 64 64zM1002.667 789.333h-682.667c-28.16 0-27.733 42.667 0 42.667h682.667c28.075 0 28.032-42.667 0-42.667z" />
<glyph unicode="&#xe912;" glyph-name="mbri-calendar" d="M234.667 874.667c-11.819 0-21.333-9.515-21.333-21.333v-170.667c0-11.819 9.515-21.333 21.333-21.333s21.333 9.515 21.333 21.333v170.667c0 11.819-9.515 21.333-21.333 21.333zM789.333 874.667c-11.819 0-21.333-9.515-21.333-21.333v-170.667c0-11.819 9.515-21.333 21.333-21.333s21.333 9.515 21.333 21.333v170.667c0 11.819-9.515 21.333-21.333 21.333zM64 789.333c-35.072 0-64-28.928-64-64v-640c0-35.072 28.928-64 64-64h896c35.072 0 64 28.928 64 64v640c0 35.072-28.928 64-64 64h-85.333c-14.251 0-21.333-10.581-21.333-21.333s6.912-21.333 21.333-21.333h85.333c12.203 0 21.333-9.131 21.333-21.333v-640c0-12.203-9.131-21.333-21.333-21.333h-896c-12.203 0-21.333 9.131-21.333 21.333v640c0 12.203 9.131 21.333 21.333 21.333h85.333c14.336 0 21.419 10.667 21.333 21.333s-7.424 21.333-21.333 21.333h-85.333zM320 789.333c-13.781 0-21.333-10.581-21.333-21.333s6.912-21.547 21.333-21.333h384c12.715 0 21.333 10.581 21.333 21.333s-6.4 21.333-21.333 21.333h-384zM149.333 533.333c-11.819 0-21.333-9.515-21.333-21.333s9.515-21.333 21.333-21.333h128c11.819 0 21.333 9.515 21.333 21.333s-9.515 21.333-21.333 21.333h-128zM448 533.333c-11.819 0-21.333-9.515-21.333-21.333s9.515-21.333 21.333-21.333h128c11.819 0 21.333 9.515 21.333 21.333s-9.515 21.333-21.333 21.333h-128zM746.667 533.333c-11.819 0-21.333-9.515-21.333-21.333s9.515-21.333 21.333-21.333h128c11.819 0 21.333 9.515 21.333 21.333s-9.515 21.333-21.333 21.333h-128zM149.333 320c-11.819 0-21.333-9.515-21.333-21.333s9.515-21.333 21.333-21.333h128c11.819 0 21.333 9.515 21.333 21.333s-9.515 21.333-21.333 21.333h-128zM448 320c-11.819 0-21.333-9.515-21.333-21.333s9.515-21.333 21.333-21.333h128c11.819 0 21.333 9.515 21.333 21.333s-9.515 21.333-21.333 21.333h-128zM746.667 320c-11.819 0-21.333-9.515-21.333-21.333s9.515-21.333 21.333-21.333h128c11.819 0 21.333 9.515 21.333 21.333s-9.515 21.333-21.333 21.333h-128z" />
<glyph unicode="&#xe913;" glyph-name="mbri-camera" d="M149.333 874.667c-35.072 0-64-28.928-64-64v-42.667c-0.213-14.421 10.581-21.333 21.333-21.333s21.547 6.912 21.333 21.333v42.667c0 12.203 9.131 21.333 21.333 21.333h170.667c12.203 0 21.333-9.131 21.333-21.333v-42.667c-0.213-14.421 10.581-21.333 21.333-21.333s21.547 6.912 21.333 21.333v42.667c0 35.072-28.928 64-64 64h-170.667zM64 704c-35.072 0-64-28.928-64-64v-554.667c0-35.072 28.928-64 64-64h896c35.072 0 64 28.928 64 64v554.667c0 35.072-28.928 64-64 64h-896zM64 661.333h896c12.203 0 21.333-9.131 21.333-21.333v-554.667c0-12.203-9.131-21.333-21.333-21.333h-896c-12.203 0-21.333 9.131-21.333 21.333v554.667c0 12.203 9.131 21.333 21.333 21.333zM789.333 618.667c-35.072 0-64-28.928-64-64s28.928-64 64-64h85.333c35.072 0 64 28.928 64 64s-28.928 64-64 64h-85.333zM512 576c-117.589 0-213.333-95.744-213.333-213.333s95.744-213.333 213.333-213.333 213.333 95.744 213.333 213.333-95.744 213.333-213.333 213.333zM789.333 576h85.333c12.203 0 21.333-9.131 21.333-21.333s-9.131-21.333-21.333-21.333h-85.333c-12.203 0-21.333 9.131-21.333 21.333s9.131 21.333 21.333 21.333zM512 533.333c94.507 0 170.667-76.16 170.667-170.667s-76.16-170.667-170.667-170.667-170.667 76.16-170.667 170.667 76.16 170.667 170.667 170.667z" />
<glyph unicode="&#xe914;" glyph-name="mbri-cart-add" d="M21.333 832c-14.421 0.213-21.333-10.581-21.333-21.333s6.912-21.547 21.333-21.333h111.019l102.827-452.693c0.085-0.341 0.128-0.597 0.256-0.853 3.627-13.568 9.259-27.136 19.413-38.528 10.112-11.392 26.027-19.925 43.819-19.925h512c17.621 0 33.621 7.936 44.373 19.413 10.667 11.52 16.853 25.941 19.371 41.088l21.333 128c4.693 28.16-37.547 35.115-42.155 6.997l-21.333-128c-2.773-16.64-10.88-24.832-21.589-24.832h-512c-16 0.427-18.773 14.507-22.016 26.667l-106.496 468.693c-2.219 9.813-10.837 16.64-20.821 16.64zM874.667 832c-82.219 0-149.333-67.115-149.333-149.333s67.115-149.333 149.333-149.333 149.333 67.115 149.333 149.333-67.115 149.333-149.333 149.333zM874.667 789.333c59.179 0 106.667-47.488 106.667-106.667s-47.488-106.667-106.667-106.667-106.667 47.488-106.667 106.667 47.488 106.667 106.667 106.667zM874.667 746.667c-11.819 0-21.333-9.515-21.333-21.333v-21.333h-21.333c-11.819 0-21.333-9.515-21.333-21.333s9.515-21.333 21.333-21.333h21.333v-21.333c0-11.819 9.515-21.333 21.333-21.333s21.333 9.515 21.333 21.333v21.333h21.333c11.819 0 21.333 9.515 21.333 21.333s-9.515 21.333-21.333 21.333h-21.333v21.333c0 11.819-9.515 21.333-21.333 21.333zM277.333 704c-11.819 0-21.333-9.515-21.333-21.333s9.515-21.333 21.333-21.333h384c11.819 0 21.333 9.515 21.333 21.333s-9.515 21.333-21.333 21.333zM320 576c-11.819 0-21.333-9.515-21.333-21.333s9.515-21.333 21.333-21.333h384c11.819 0 21.333 9.515 21.333 21.333s-9.515 21.333-21.333 21.333zM362.667 448c-11.819 0-21.333-9.515-21.333-21.333s9.515-21.333 21.333-21.333h384c11.819 0 21.333 9.515 21.333 21.333s-9.515 21.333-21.333 21.333zM341.333 234.667c-46.933 0-85.333-38.4-85.333-85.333s38.4-85.333 85.333-85.333 85.333 38.4 85.333 85.333-38.4 85.333-85.333 85.333zM725.333 234.667c-46.933 0-85.333-38.4-85.333-85.333s38.4-85.333 85.333-85.333 85.333 38.4 85.333 85.333-38.4 85.333-85.333 85.333zM341.333 192c23.808 0 42.667-18.859 42.667-42.667s-18.859-42.667-42.667-42.667-42.667 18.859-42.667 42.667 18.859 42.667 42.667 42.667zM725.333 192c23.808 0 42.667-18.859 42.667-42.667s-18.859-42.667-42.667-42.667-42.667 18.859-42.667 42.667 18.859 42.667 42.667 42.667z" />
<glyph unicode="&#xe915;" glyph-name="mbri-cart-full" d="M618.667 874.667c-5.547-0.085-11.179-2.347-15.104-6.272l-112.811-112.64-70.187 70.059c-8.32 8.277-21.76 8.277-30.080 0l-85.248-85.12c-20.224-18.091 11.861-50.475 30.080-30.123l70.144 70.101 70.229-70.101c8.32-8.277 21.76-8.277 30.080 0l112.853 112.64 112.853-112.64c8.277-8.277 21.76-8.277 30.080 0l70.4 70.101 69.973-70.101c18.347-20.48 50.432 11.947 30.123 30.080l-85.248 85.12c-8.32 8.277-21.76 8.277-30.080 0l-70.059-70.016-112.896 112.64c-4.096 4.096-9.387 6.4-15.104 6.272zM21.333 789.333c-14.421 0.213-21.333-10.581-21.333-21.333s6.912-21.547 21.333-21.333h111.019l102.827-452.693c0.085-0.341 0.128-0.597 0.256-0.853 3.627-13.568 9.259-27.136 19.413-38.528 10.112-11.392 26.027-19.925 43.819-19.925h574.421c17.835 0 33.707 8.704 43.733 20.053 10.027 11.435 15.616 24.747 19.413 37.973l86.016 298.667c5.717 20.053-3.413 39.851-16.128 51.541-12.672 11.691-28.288 18.432-46.123 18.432h-682.667c-14.421 0.213-21.333-10.581-21.333-21.333s6.912-21.547 21.333-21.333h681.813c15.061 0 24.235-7.424 22.101-15.36l-86.016-298.667c-5.291-19.84-12.16-27.307-22.187-27.307h-574.379c-15.019 0-18.048 11.947-22.016 26.667l-106.496 468.693c-2.219 9.813-10.837 16.64-20.821 16.64zM320 533.333c-11.819 0-21.333-9.515-21.333-21.333s9.515-21.333 21.333-21.333h554.667c11.819 0 21.333 9.515 21.333 21.333s-9.515 21.333-21.333 21.333zM362.667 405.333c-11.819 0-21.333-9.515-21.333-21.333s9.515-21.333 21.333-21.333h469.333c11.819 0 21.333 9.515 21.333 21.333s-9.515 21.333-21.333 21.333zM341.333 192c-46.933 0-85.333-38.4-85.333-85.333s38.4-85.333 85.333-85.333 85.333 38.4 85.333 85.333-38.4 85.333-85.333 85.333zM810.667 192c-46.933 0-85.333-38.4-85.333-85.333s38.4-85.333 85.333-85.333 85.333 38.4 85.333 85.333-38.4 85.333-85.333 85.333zM341.333 149.333c23.808 0 42.667-18.859 42.667-42.667s-18.859-42.667-42.667-42.667-42.667 18.859-42.667 42.667 18.859 42.667 42.667 42.667zM810.667 149.333c23.808 0 42.667-18.859 42.667-42.667s-18.859-42.667-42.667-42.667-42.667 18.859-42.667 42.667 18.859 42.667 42.667 42.667z" />
<glyph unicode="&#xe916;" glyph-name="mbri-cash" d="M234.667 789.333c-14.421 0.213-21.333-10.581-21.333-21.333s6.912-21.547 21.333-21.333h725.333c12.203 0 21.333-9.131 21.333-21.333v-426.667c-0.213-14.421 10.581-21.333 21.333-21.333s21.547 6.912 21.333 21.333v426.667c0 35.072-28.928 64-64 64zM149.333 704c-14.421 0.213-21.333-10.581-21.333-21.333s6.912-21.547 21.333-21.333h725.333c12.203 0 21.333-9.131 21.333-21.333v-426.667c-0.213-14.421 10.581-21.333 21.333-21.333s21.547 6.912 21.333 21.333v426.667c0 35.072-28.928 64-64 64zM64 618.667c-35.072 0-64-28.928-64-64v-426.667c0-35.072 28.928-64 64-64h725.333c35.072 0 64 28.928 64 64v426.667c0 35.072-28.928 64-64 64zM64 576h725.333c12.203 0 21.333-9.131 21.333-21.333v-426.667c0-12.203-9.131-21.333-21.333-21.333h-725.333c-12.203 0-21.333 9.131-21.333 21.333v426.667c0 12.203 9.131 21.333 21.333 21.333zM106.667 533.333c-11.776 0-21.333-9.557-21.333-21.333v-85.333c-0.213-14.421 10.581-21.333 21.333-21.333s21.547 6.912 21.333 21.333v64h64c14.421-0.213 21.333 10.581 21.333 21.333s-6.912 21.547-21.333 21.333zM405.333 533.333c-105.813 0-192-86.187-192-192s86.187-192 192-192 192 86.187 192 192-86.187 192-192 192zM661.333 490.667h64v-64c-0.213-14.421 10.581-21.333 21.333-21.333s21.547 6.912 21.333 21.333v85.333c0 11.776-9.557 21.333-21.333 21.333h-85.333c-14.848 0-21.333-8.96-21.333-21.333s5.845-21.333 21.333-21.333zM405.333 490.667c82.773 0 149.333-66.56 149.333-149.333s-66.56-149.333-149.333-149.333-149.333 66.56-149.333 149.333 66.56 149.333 149.333 149.333zM405.333 448c-34.987 0-64-29.013-64-64s29.013-64 64-64c11.947 0 21.333-9.045 21.333-21.333s-9.387-21.333-21.333-21.333h-42.667c-14.421 0.213-21.333-10.581-21.333-21.333s6.912-21.547 21.333-21.333h42.667c34.987 0 64 29.013 64 64s-29.013 64-64 64c-11.947 0-21.333 9.045-21.333 21.333s9.387 21.333 21.333 21.333h42.667c14.421-0.213 21.333 10.581 21.333 21.333s-6.912 21.547-21.333 21.333zM106.667 277.333c-12.032 0.171-21.504-9.301-21.333-21.333v-85.333c0-11.776 9.557-21.333 21.333-21.333h85.333c14.421-0.213 21.333 10.581 21.333 21.333s-6.912 21.547-21.333 21.333h-64v64c0.171 11.776-9.557 21.163-21.333 21.333zM746.667 277.333c-11.776-0.171-21.504-9.557-21.333-21.333v-64h-64c-14.421 0.213-21.333-10.581-21.333-21.333s6.912-21.547 21.333-21.333h85.333c11.776 0 21.333 9.557 21.333 21.333v85.333c0.171 12.032-9.301 21.504-21.333 21.333z" />
<glyph unicode="&#xe917;" glyph-name="mbri-change-style" d="M170.667 234.667c-30.507 0-58.88-8.96-82.432-27.563-23.552-18.688-45.568-48.811-45.568-79.104v-85.333c0-26.88-15.36-51.499-35.499-69.333-13.397-13.44-7.168-37.333 14.165-37.333h42.667c49.92 1.536 103.68 8.533 150.187 35.499 23.467 13.483 44.587 31.872 60.075 55.168 15.531 23.381 24.405 50.987 24.405 80 0 33.536-14.379 66.261-38.101 89.899-23.68 23.595-56.491 38.101-89.899 38.101zM170.667 192c22.187-0.512 44.117-10.069 59.733-25.685 15.659-15.573 25.6-38.315 25.6-59.648 0-19.2-6.144-39.595-17.323-56.405-11.264-16.939-27.307-31.147-45.781-41.813-36.693-21.333-82.347-28.288-128.597-29.781 11.093 19.115 21.077 41.685 21.077 64v85.333c0 19.285 14.080 33.536 29.355 45.653 15.36 12.16 36.181 18.773 55.979 18.347zM1002.667 960c-3.413 0-6.229-0.683-9.259-2.133-192-92.843-372.907-208.512-537.6-344.021-39.339-32.341-79.232-66.987-110.507-110.763-29.227-41.003-46.635-92.373-46.635-140.416 0-34.133 14.293-66.987 38.315-90.667 23.637-23.253 55.979-37.333 89.685-37.333 47.616 0 98.901 15.915 140.245 44.8 44.245 30.976 78.763 71.253 110.933 110.72 135.040 165.547 250.752 346.88 343.979 539.136 6.827 14.080-3.669 30.293-19.2 30.72zM947.413 883.413c-85.589-164.779-185.173-322.432-302.592-466.347-31.573-38.741-64-75.733-102.4-102.656-33.536-23.467-78.080-37.12-115.755-37.12-21.461 0-44.075 9.6-59.648 25.003-15.787 15.573-25.685 38.613-25.685 60.373 0 37.333 14.677 82.005 38.656 115.627 27.392 38.315 64.299 70.827 102.912 102.528 143.019 117.632 300.032 217.344 464.512 302.592z" />
<glyph unicode="&#xe918;" glyph-name="mbri-chat" d="M64 917.333c-35.072 0-64-28.928-64-64v-640c0-35.072 28.928-64 64-64h106.667v-149.333c0-0.011 0-0.025 0-0.038 0-11.782 9.551-21.333 21.333-21.333 5.901 0 11.242 2.396 15.104 6.267l164.395 164.438h588.501c35.072 0 64 28.928 64 64v640c0 35.072-28.928 64-64 64h-896zM64 874.667h896c12.203 0 21.333-9.131 21.333-21.333v-640c0-12.203-9.131-21.333-21.333-21.333h-597.333c-0.011 0-0.025 0-0.038 0-5.882 0-11.207-2.38-15.066-6.23l-134.229-134.272v119.168c0 11.782-9.551 21.333-21.333 21.333h-128c-12.203 0-21.333 9.131-21.333 21.333v640c0 12.203 9.131 21.333 21.333 21.333zM149.333 746.667c-11.819 0-21.333-9.515-21.333-21.333s9.515-21.333 21.333-21.333h725.333c11.819 0 21.333 9.515 21.333 21.333s-9.515 21.333-21.333 21.333h-725.333zM149.333 618.667c-11.819 0-21.333-9.515-21.333-21.333s9.515-21.333 21.333-21.333h725.333c11.819 0 21.333 9.515 21.333 21.333s-9.515 21.333-21.333 21.333h-725.333zM149.333 490.667c-11.819 0-21.333-9.515-21.333-21.333s9.515-21.333 21.333-21.333h725.333c11.819 0 21.333 9.515 21.333 21.333s-9.515 21.333-21.333 21.333h-725.333z" />
<glyph unicode="&#xe919;" glyph-name="mbri-clock" d="M128 469.333c0-11.782-9.551-21.333-21.333-21.333s-21.333 9.551-21.333 21.333c0 11.782 9.551 21.333 21.333 21.333s21.333-9.551 21.333-21.333zM512 85.333c0-11.782-9.551-21.333-21.333-21.333s-21.333 9.551-21.333 21.333c0 11.782 9.551 21.333 21.333 21.333s21.333-9.551 21.333-21.333zM896 469.333c0-11.782-9.551-21.333-21.333-21.333s-21.333 9.551-21.333 21.333c0 11.782 9.551 21.333 21.333 21.333s21.333-9.551 21.333-21.333zM512 853.333c0-11.782-9.551-21.333-21.333-21.333s-21.333 9.551-21.333 21.333c0 11.782 9.551 21.333 21.333 21.333s21.333-9.551 21.333-21.333zM490.667 789.333c-11.819 0-21.333-9.515-21.333-21.333v-238.677c-24.747-8.875-42.667-32.427-42.667-59.989 0-35.115 28.885-64 64-64 27.605 0 51.115 17.92 59.989 42.667h153.344c11.819 0 21.333 9.515 21.333 21.333s-9.515 21.333-21.333 21.333h-153.344c-6.485 18.005-20.651 32.171-38.656 38.656v238.677c0 11.819-9.515 21.333-21.333 21.333zM490.667 490.667c12.032 0 21.333-9.301 21.333-21.333s-9.301-21.333-21.333-21.333c-12.032 0-21.333 9.301-21.333 21.333s9.301 21.333 21.333 21.333zM490.667 960c-270.72 0-490.667-219.947-490.667-490.667s219.947-490.667 490.667-490.667 490.667 219.947 490.667 490.667-219.947 490.667-490.667 490.667zM490.667 917.333c247.68 0 448-200.32 448-448s-200.32-448-448-448-448 200.32-448 448 200.32 448 448 448z" />
<glyph unicode="&#xe91a;" glyph-name="mbri-close" d="M1017.515 953.899c-8.448 8.192-21.973 7.979-30.165-0.427l-426.453-426.496c-19.115-18.56 10.965-49.323 30.165-30.123l426.453 426.453c8.661 8.363 8.661 22.187 0 30.592zM463.104 399.531c-8.448 8.192-21.973 7.979-30.165-0.427l-426.539-426.539c-19.541-19.029 10.923-50.005 30.208-30.165l426.496 426.496c8.661 8.405 8.661 22.272 0 30.635zM36.608 953.429c-18.688 18.773-49.408-10.752-30.208-30.123l980.992-980.907c19.627-19.968 50.005 10.453 30.165 30.208z" />
<glyph unicode="&#xe91b;" glyph-name="mbri-cloud" d="M568.491 789.333c-54.613 0-109.141-10.795-158.080-35.072-61.568-30.549-111.445-75.435-144.384-135.595-70.187 2.859-140.8-27.179-190.72-76.8-53.291-53.077-81.152-129.451-74.325-204.373 5.461-59.307 32.128-115.84 74.368-157.739 42.24-41.941 99.115-68.139 158.421-73.131h598.229c20.053 0 41.131 0.128 63.147 4.352 22.059 4.181 43.776 12.373 62.933 25.6 19.2 13.227 34.987 30.848 46.165 51.2 11.093 20.309 17.323 42.752 19.2 65.365 3.584 43.947-9.387 88.405-35.925 123.563-23.211 30.72-54.784 51.2-91.52 62.165 2.987 77.227-20.48 154.88-67.072 216.661-50.048 66.219-124.715 112.64-206.251 128-17.92 3.413-36.011 5.76-54.187 5.76zM567.467 746.667c16.213 0 31.787-2.133 47.36-5.12 70.827-13.312 136.661-54.187 180.053-111.616 43.52-57.515 64.725-131.499 58.197-203.264-0.981-10.837 6.4-19.2 17.067-21.333 32.683-6.4 63.275-27.733 83.371-54.187 20.053-26.624 30.123-61.355 27.392-94.464-1.408-17.067-6.187-33.707-14.165-48.341-7.936-14.507-19.285-27.307-32.853-36.608-13.525-9.387-29.696-15.659-46.72-18.901-17.067-3.243-35.413-3.499-55.168-3.499h-595.2c-48.939 4.267-96.64 26.24-131.413 60.843-34.987 34.645-57.387 82.261-61.867 131.243-5.675 61.653 17.92 126.464 61.867 170.069s108.8 70.571 170.411 64.512c8.789-0.853 17.237 2.688 21.163 10.667 28.288 56.619 75.733 101.248 132.437 129.408 42.581 21.12 90.453 30.592 138.069 30.592z" />
<glyph unicode="&#xe91c;" glyph-name="mbri-code" d="M672.213 743.68c-10.155 5.973-23.211 2.688-29.227-7.467l-341.163-554.112c-13.909-22.613 21.333-46.763 36.352-22.315l341.163 554.112c6.4 10.155 3.243 23.637-7.125 29.781zM773.76 654.592c7.936 8.533 21.419 9.088 30.037 1.109l213.12-191.872c9.387-8.405 9.387-23.125 0-31.573l-213.12-191.829c-20.181-18.176-48.853 13.483-28.587 31.744l195.627 175.829-195.584 176.043c-8.96 7.893-9.728 21.76-1.536 30.549zM250.24 654.592c-7.936 8.533-21.419 9.088-30.037 1.109l-213.12-191.915c-9.387-8.405-9.387-23.125 0-31.573l213.12-191.829c20.181-18.219 49.28 13.099 28.587 31.744l-195.627 175.872 195.584 176.043c8.96 7.893 9.728 21.76 1.536 30.549z" />
<glyph unicode="&#xe91d;" glyph-name="mbri-contact-form" d="M149.333 533.333c-35.072 0-64-28.928-64-64v-170.667c0-35.072 28.928-64 64-64h128c35.072 0 64 28.928 64 64v170.667c0 35.072-28.928 64-64 64h-128zM149.333 490.667h128c12.203 0 21.333-9.131 21.333-21.333v-170.667c0-12.203-9.131-21.333-21.333-21.333h-128c-12.203 0-21.333 9.131-21.333 21.333v170.667c0 12.203 9.131 21.333 21.333 21.333zM405.333 277.333h469.333c11.819 0 21.333-9.515 21.333-21.333s-9.515-21.333-21.333-21.333h-469.333c-11.819 0-21.333 9.515-21.333 21.333s9.515 21.333 21.333 21.333zM234.667 874.667c-11.819 0-21.333-9.515-21.333-21.333v-170.667c0-11.819 9.515-21.333 21.333-21.333s21.333 9.515 21.333 21.333v170.667c0 11.819-9.515 21.333-21.333 21.333zM789.333 874.667c-11.819 0-21.333-9.515-21.333-21.333v-170.667c0-11.819 9.515-21.333 21.333-21.333s21.333 9.515 21.333 21.333v170.667c0 11.819-9.515 21.333-21.333 21.333zM64 789.333c-35.072 0-64-28.928-64-64v-640c0-35.072 28.928-64 64-64h896c35.072 0 64 28.928 64 64v640c0 35.072-28.928 64-64 64h-85.333c-14.251 0-21.333-10.581-21.333-21.333s6.912-21.333 21.333-21.333h85.333c12.203 0 21.333-9.131 21.333-21.333v-640c0-12.203-9.131-21.333-21.333-21.333h-896c-12.203 0-21.333 9.131-21.333 21.333v640c0 12.203 9.131 21.333 21.333 21.333h85.333c14.336 0 21.419 10.667 21.333 21.333s-7.424 21.333-21.333 21.333zM320 789.333c-13.781 0-21.333-10.581-21.333-21.333s6.912-21.547 21.333-21.333h384c12.715 0 21.333 10.581 21.333 21.333s-6.4 21.333-21.333 21.333zM405.333 533.333c-11.819 0-21.333-9.515-21.333-21.333s9.515-21.333 21.333-21.333h469.333c11.819 0 21.333 9.515 21.333 21.333s-9.515 21.333-21.333 21.333zM405.333 405.333c-11.819 0-21.333-9.515-21.333-21.333s9.515-21.333 21.333-21.333h469.333c11.819 0 21.333 9.515 21.333 21.333s-9.515 21.333-21.333 21.333z" />
<glyph unicode="&#xe91e;" glyph-name="mbri-credit-card" d="M768 320c-46.933 0-85.333-38.4-85.333-85.333s38.4-85.333 85.333-85.333c15.787 0 29.44 8.32 42.667 16.427 13.227-8.107 26.88-16.427 42.667-16.427 46.933 0 85.333 38.4 85.333 85.333s-38.4 85.333-85.333 85.333c-15.787 0-29.44-8.32-42.667-16.427-13.227 8.107-26.88 16.427-42.667 16.427zM768 277.333c10.453 0 20.608-3.84 28.416-10.923 8.107-7.253 20.395-7.253 28.501 0 7.808 7.040 17.92 10.923 28.416 10.923 23.808 0 42.667-18.859 42.667-42.667s-18.859-42.667-42.667-42.667c-10.453 0-20.608 3.84-28.416 10.923-8.107 7.253-20.395 7.253-28.501 0-7.808-7.040-17.92-10.923-28.416-10.923-23.808 0-42.667 18.859-42.667 42.667s18.859 42.667 42.667 42.667zM64 832c-35.072 0-64-28.928-64-64v-426.667c0-35.072 28.928-64 64-64h42.667c29.355 0 27.179 42.667 0 42.667h-42.667c-12.203 0-21.333 9.131-21.333 21.333v192h64c11.819 0 21.333 9.515 21.333 21.333s-9.515 21.333-21.333 21.333h-64v128h768v-21.333c0-28.501 42.667-27.861 42.667 0v85.333c0 35.072-28.928 64-64 64zM64 789.333h725.333c12.203 0 21.333-9.131 21.333-21.333v-21.333h-768v21.333c0 12.203 9.131 21.333 21.333 21.333zM533.333 234.667h42.667c11.819 0 21.333-9.515 21.333-21.333s-9.515-21.333-21.333-21.333h-42.667c-11.819 0-21.333 9.515-21.333 21.333s9.515 21.333 21.333 21.333zM405.333 234.667h42.667c11.819 0 21.333-9.515 21.333-21.333s-9.515-21.333-21.333-21.333h-42.667c-11.819 0-21.333 9.515-21.333 21.333s9.515 21.333 21.333 21.333zM277.333 234.667h42.667c11.819 0 21.333-9.515 21.333-21.333s-9.515-21.333-21.333-21.333h-42.667c-11.819 0-21.333 9.515-21.333 21.333s9.515 21.333 21.333 21.333zM490.667 448h426.667c11.819 0 21.333-9.515 21.333-21.333s-9.515-21.333-21.333-21.333h-426.667c-11.819 0-21.333 9.515-21.333 21.333s9.515 21.333 21.333 21.333zM704 533.333h213.333c11.819 0 21.333-9.515 21.333-21.333s-9.515-21.333-21.333-21.333h-213.333c-11.819 0-21.333 9.515-21.333 21.333s9.515 21.333 21.333 21.333zM490.667 533.333h128c11.819 0 21.333-9.515 21.333-21.333s-9.515-21.333-21.333-21.333h-128c-11.819 0-21.333 9.515-21.333 21.333s9.515 21.333 21.333 21.333zM277.333 533.333c-11.776 0-21.333-9.557-21.333-21.333v-170.667c0-11.776 9.557-21.333 21.333-21.333h128c11.776 0 21.333 9.557 21.333 21.333v170.667c0 11.776-9.557 21.333-21.333 21.333zM298.667 490.667h85.333v-128h-85.333zM234.667 618.667c-35.072 0-64-28.928-64-64v-426.667c0-35.072 28.928-64 64-64h725.333c35.072 0 64 28.928 64 64v426.667c0 35.072-28.928 64-64 64zM234.667 576h725.333c12.203 0 21.333-9.131 21.333-21.333v-426.667c0-12.203-9.131-21.333-21.333-21.333h-725.333c-12.203 0-21.333 9.131-21.333 21.333v426.667c0 12.203 9.131 21.333 21.333 21.333z" />
<glyph unicode="&#xe91f;" glyph-name="mbri-cursor-click" d="M133.973 70.4c-8.107 8.533-7.936 21.888 0.427 30.080l42.496 42.411c19.627 19.627 49.493-10.496 29.995-30.037l-42.453-42.453c-8.363-8.533-22.187-8.533-30.507 0zM816.64 753.067c-8.107 8.533-7.936 21.888 0.427 30.080l42.496 42.411c18.688 19.2 49.067-11.435 29.995-30.037l-42.453-42.453c-8.363-8.533-22.187-8.533-30.507 0zM133.973 825.6c-8.107-8.533-7.936-21.888 0.427-30.080l42.496-42.411c19.072-19.072 49.621 10.965 29.995 30.037l-42.453 42.453c-8.363 8.533-22.187 8.533-30.507 0zM0 469.333c0 11.819 9.515 21.333 21.333 21.333h85.333c11.819 0 21.333-9.515 21.333-21.333s-9.515-21.333-21.333-21.333h-85.333c-11.819 0-21.333 9.515-21.333 21.333zM533.333 960c11.819 0 21.333-9.515 21.333-21.333v-85.333c0-11.819-9.515-21.333-21.333-21.333s-21.333 9.515-21.333 21.333v85.333c0 11.819 9.515 21.333 21.333 21.333zM342.016 634.965l170.667-682.795c3.925-15.573 22.869-21.419 34.859-10.795l177.792 157.312 155.605-156.459c8.32-8.32 21.76-8.32 30.165 0l106.667 106.667c8.32 8.363 8.32 21.888 0 30.208l-155.605 155.563 155.605 155.648c10.965 11.093 6.827 29.739-7.765 35.115l-640 234.752c-23.125 6.187-31.232-12.971-27.989-25.173zM393.131 606.293l570.88-209.365-147.072-147.115c-8.32-8.363-8.32-21.845 0-30.165l155.563-155.648-76.501-76.501-155.563 155.605c-8.021 7.979-20.821 8.363-29.269 0.853l-165.632-147.285z" />
<glyph unicode="&#xe920;" glyph-name="mbri-cust-feedback" d="M646.101 697.6l-240.64-240.811-70.187 70.187c-18.773 18.773-49.621-10.667-30.165-30.080l85.333-85.333c8.277-8.277 21.76-8.277 30.080 0l255.787 255.915c8.533 8.363 8.533 22.187 0 30.464s-21.973 8.107-30.165-0.341zM64 917.333c-35.072 0-64-28.928-64-64v-640c0-35.072 28.928-64 64-64h106.667v-149.333c0-18.987 23.040-28.501 36.437-15.104l164.395 164.437h588.501c35.072 0 64 28.928 64 64v640c0 35.072-28.928 64-64 64zM64 874.667h896c12.203 0 21.333-9.131 21.333-21.333v-640c0-12.203-9.131-21.333-21.333-21.333h-597.333c-5.675 0-11.093-2.261-15.104-6.272l-134.229-134.229v119.168c0 11.776-9.557 21.333-21.333 21.333h-128c-12.203 0-21.333 9.131-21.333 21.333v640c0 12.203 9.131 21.333 21.333 21.333z" />
<glyph unicode="&#xe921;" glyph-name="mbri-database" d="M64 960c-35.072 0-64-28.928-64-64v-810.667c0-35.072 28.928-64 64-64h21.333v-64c0-11.776 9.557-21.333 21.333-21.333h128c11.776 0 21.333 9.557 21.333 21.333v64h512v-64c0-11.776 9.557-21.333 21.333-21.333h128c11.776 0 21.333 9.557 21.333 21.333v64h21.333c35.072 0 64 28.928 64 64v810.667c0 35.072-28.928 64-64 64h-896zM64 917.333h896c12.203 0 21.333-9.131 21.333-21.333v-810.667c0-12.203-9.131-21.333-21.333-21.333h-896c-12.203 0-21.333 9.131-21.333 21.333v810.667c0 12.203 9.131 21.333 21.333 21.333zM149.333 789.333c-11.782 0-21.333-9.551-21.333-21.333s9.551-21.333 21.333-21.333c11.782 0 21.333 9.551 21.333 21.333s-9.551 21.333-21.333 21.333zM277.333 789.333c-11.782 0-21.333-9.551-21.333-21.333s9.551-21.333 21.333-21.333c11.782 0 21.333 9.551 21.333 21.333s-9.551 21.333-21.333 21.333zM405.333 789.333c-11.782 0-21.333-9.551-21.333-21.333s9.551-21.333 21.333-21.333c11.782 0 21.333 9.551 21.333 21.333s-9.551 21.333-21.333 21.333zM106.667 661.333c-11.819 0-21.333-9.515-21.333-21.333s9.515-21.333 21.333-21.333h810.667c11.819 0 21.333 9.515 21.333 21.333s-9.515 21.333-21.333 21.333h-810.667zM277.333 490.667c-11.782 0-21.333-9.551-21.333-21.333s9.551-21.333 21.333-21.333c11.782 0 21.333 9.551 21.333 21.333s-9.551 21.333-21.333 21.333zM405.333 490.667c-11.782 0-21.333-9.551-21.333-21.333s9.551-21.333 21.333-21.333c11.782 0 21.333 9.551 21.333 21.333s-9.551 21.333-21.333 21.333zM533.333 490.667c-11.782 0-21.333-9.551-21.333-21.333s9.551-21.333 21.333-21.333c11.782 0 21.333 9.551 21.333 21.333s-9.551 21.333-21.333 21.333zM106.667 362.667c-11.819 0-21.333-9.515-21.333-21.333s9.515-21.333 21.333-21.333h810.667c11.819 0 21.333 9.515 21.333 21.333s-9.515 21.333-21.333 21.333h-810.667zM149.333 192c-11.782 0-21.333-9.551-21.333-21.333s9.551-21.333 21.333-21.333c11.782 0 21.333 9.551 21.333 21.333s-9.551 21.333-21.333 21.333zM277.333 192c-11.782 0-21.333-9.551-21.333-21.333s9.551-21.333 21.333-21.333c11.782 0 21.333 9.551 21.333 21.333s-9.551 21.333-21.333 21.333zM405.333 192c-11.782 0-21.333-9.551-21.333-21.333s9.551-21.333 21.333-21.333c11.782 0 21.333 9.551 21.333 21.333s-9.551 21.333-21.333 21.333zM128 21.333h85.333v-42.667h-85.333v42.667zM810.667 21.333h85.333v-42.667h-85.333v42.667z" />
<glyph unicode="&#xe922;" glyph-name="mbri-delivery" d="M21.333 362.667h85.333c11.819 0 21.333-9.515 21.333-21.333s-9.515-21.333-21.333-21.333h-85.333c-11.819 0-21.333 9.515-21.333 21.333s9.515 21.333 21.333 21.333zM21.333 533.333h85.333c11.819 0 21.333-9.515 21.333-21.333s-9.515-21.333-21.333-21.333h-85.333c-11.819 0-21.333 9.515-21.333 21.333s9.515 21.333 21.333 21.333zM21.333 704h85.333c11.819 0 21.333-9.515 21.333-21.333s-9.515-21.333-21.333-21.333h-85.333c-11.819 0-21.333 9.515-21.333 21.333s9.515 21.333 21.333 21.333zM548.267 569.941c-8.448 8.235-21.931 8.107-30.123-0.341l-112.811-112.811-70.101 70.144c-19.2 19.2-49.408-11.349-30.123-30.165l85.248-85.205c8.32-8.32 21.76-8.32 30.123 0l127.829 127.872c8.533 8.363 8.533 22.187 0 30.507zM852.48 320c-46.848 0-85.333-38.4-85.333-85.333s38.485-85.333 85.333-85.333c46.933 0 85.333 38.4 85.333 85.333s-38.4 85.333-85.333 85.333zM852.48 277.333c23.893 0 42.667-18.859 42.667-42.667s-18.773-42.667-42.667-42.667c-23.808 0-42.667 18.859-42.667 42.667s18.859 42.667 42.667 42.667zM384 320c-46.933 0-85.333-38.4-85.333-85.333s38.4-85.333 85.333-85.333 85.333 38.4 85.333 85.333-38.4 85.333-85.333 85.333zM384 277.333c23.808 0 42.667-18.859 42.667-42.667s-18.859-42.667-42.667-42.667-42.667 18.859-42.667 42.667 18.859 42.667 42.667 42.667zM746.667 277.333c27.648 0 28.672 42.667 0 42.667h-21.333v298.667h117.589l138.411-178.005v-120.661h-21.333c-27.989 0-28.331-42.667 0-42.667h21.333c23.253 0 42.667 19.413 42.667 42.667v128c0 4.693-1.579 9.387-4.48 13.099l-149.333 192c-4.053 5.248-10.24 8.235-16.853 8.235h-128v42.667c0 23.253-19.413 42.667-42.667 42.667h-469.333c-23.253 0-42.667-19.413-42.667-42.667v-384c0-23.253 19.413-42.667 42.667-42.667h64c27.648-0.427 28.587 42.667 0 42.667h-64v384h469.333v-384h-192c-27.648 0-28.16-43.093 0-42.667z" />
<glyph unicode="&#xe923;" glyph-name="mbri-desktop" d="M512 256c0-11.782-9.551-21.333-21.333-21.333s-21.333 9.551-21.333 21.333c0 11.782 9.551 21.333 21.333 21.333s21.333-9.551 21.333-21.333zM106.667 362.667h768c11.819 0 21.333-9.515 21.333-21.333s-9.515-21.333-21.333-21.333h-768c-11.819 0-21.333 9.515-21.333 21.333s9.515 21.333 21.333 21.333zM64 874.667c-35.072 0-64-28.928-64-64v-597.333c0-35.072 28.928-64 64-64h320v-85.333h-64c-11.819 0-21.333-9.515-21.333-21.333s9.515-21.333 21.333-21.333h341.333c11.819 0 21.333 9.515 21.333 21.333s-9.515 21.333-21.333 21.333h-64v85.333h320c35.072 0 64 28.928 64 64v597.333c0 35.072-28.928 64-64 64h-853.333zM64 832h853.333c12.203 0 21.333-9.131 21.333-21.333v-597.333c0-12.203-9.131-21.333-21.333-21.333h-853.333c-12.203 0-21.333 9.131-21.333 21.333v597.333c0 12.203 9.131 21.333 21.333 21.333zM426.667 149.333h128v-85.333h-128v85.333z" />
<glyph unicode="&#xe924;" glyph-name="mbri-devices" d="M277.333 192c-28.8 0-53.419-18.944-61.355-45.355l-113.323-18.645c-10.24-1.963-17.493-10.965-17.323-21.333v-85.333c-0.171-10.368 7.125-19.371 17.323-21.333l113.323-18.688c7.936-26.325 32.555-45.312 61.355-45.312h128c28.8 0 53.419 18.944 61.355 45.355l113.323 18.645c10.24 1.963 17.493 10.965 17.323 21.333v85.333c0.171 10.368-7.125 19.371-17.323 21.333l-113.323 18.688c-7.936 26.325-32.555 45.312-61.355 45.312zM277.333 149.333h128c12.203 0 21.333-9.131 21.333-21.333v-128c0-12.203-9.131-21.333-21.333-21.333h-128c-12.203 0-21.333 9.131-21.333 21.333v128c0 12.203 9.131 21.333 21.333 21.333zM213.333 102.656v-77.312l-85.333 14.635v48zM469.333 102.656l85.333-14.635v-48l-85.333-14.677zM64 917.333c-35.072 0-64-28.928-64-64v-512c0-35.072 28.928-64 64-64h511.701c11.264-0.171 21.632 10.069 21.632 21.333s-10.368 21.504-21.632 21.333h-511.701c-12.203 0-21.333 9.131-21.333 21.333v512c0 12.203 9.131 21.333 21.333 21.333h810.667c12.203 0 21.333-9.131 21.333-21.333v-213.333c-0.171-11.264 10.069-21.163 21.333-21.163s21.504 9.899 21.333 21.163v213.333c0 35.072-28.928 64-64 64zM170.667 789.333v-384c0-24.576 17.28-42.667 42.667-42.667h362.667c11.264-0.171 21.632 10.069 21.632 21.333s-10.368 21.504-21.632 21.333h-362.667v384h597.333v-149.333c-0.171-11.264 10.069-21.504 21.333-21.504s21.504 10.24 21.333 21.504v149.333c0 26.453-18.987 42.667-42.667 42.667h-597.333c-24.107 0-42.667-17.92-42.667-42.667zM832 64c11.819 0 21.333-9.515 21.333-21.333s-9.515-21.333-21.333-21.333-21.333 9.515-21.333 21.333 9.515 21.333 21.333 21.333zM789.333 490.667h85.333c11.819 0 21.333-9.515 21.333-21.333s-9.515-21.333-21.333-21.333h-85.333c-11.819 0-21.333 9.515-21.333 21.333s9.515 21.333 21.333 21.333zM704 576c-35.072 0-64-28.928-64-64v-512c0-35.072 28.928-64 64-64h256c35.072 0 64 28.928 64 64v512c0 35.072-28.928 64-64 64zM704 533.333h256c12.203 0 21.333-9.131 21.333-21.333v-512c0-12.203-9.131-21.333-21.333-21.333h-256c-12.203 0-21.333 9.131-21.333 21.333v512c0 12.203 9.131 21.333 21.333 21.333zM106.667 618.667c11.819 0 21.333-9.515 21.333-21.333s-9.515-21.333-21.333-21.333-21.333 9.515-21.333 21.333 9.515 21.333 21.333 21.333z" />
<glyph unicode="&#xe925;" glyph-name="mbri-down" d="M960 448c-5.547-0.171-11.392-2.475-15.232-6.4l-454.101-454.144-453.973 453.888c-19.2 19.968-50.133-10.965-30.123-30.165l468.907-468.907c8.363-8.363 21.888-8.363 30.208 0l469.248 469.12c13.013 12.715 5.12 36.565-14.933 36.565zM490.667 960c11.819 0 21.333-9.515 21.333-21.333v-853.333c0-11.819-9.515-21.333-21.333-21.333s-21.333 9.515-21.333 21.333v853.333c0 11.819 9.515 21.333 21.333 21.333z" />
<glyph unicode="&#xe926;" glyph-name="mbri-download" d="M518.229-15.104c8.32-8.32 21.76-8.32 30.123 0l127.872 127.829c20.608 20.053-10.112 50.773-30.165 30.123l-112.725-112.768-112.768 112.725c-20.053 20.651-50.773-10.069-30.080-30.123zM533.333 106.667c-11.819 0-21.333 9.515-21.333 21.333v213.333c0 11.776 9.515 21.333 21.333 21.333s21.333-9.557 21.333-21.333v-213.333c0-11.819-9.515-21.333-21.333-21.333zM568.491 917.248c-54.443 1.28-109.141-10.795-158.080-35.072-61.525-30.549-111.445-75.349-144.341-135.595-70.229 2.859-140.8-27.179-190.72-76.8-53.333-52.992-81.237-129.365-74.368-204.288 5.419-59.179 32.128-115.755 74.325-157.696 42.283-41.899 99.627-73.131 158.507-73.131h43.52c11.819 0 21.333 9.515 21.333 21.333s-9.515 21.333-21.333 21.333h-40.533c-48.939 4.181-96.64 26.24-131.413 60.8-34.987 34.688-57.387 82.347-61.867 131.243-5.632 61.696 17.92 126.464 61.867 170.112 43.947 43.605 108.8 70.485 170.411 64.512 8.832-0.853 17.237 2.56 21.163 10.539 28.288 56.661 75.733 101.291 132.48 129.451 42.539 21.163 90.453 31.701 138.069 30.635 15.872-0.341 31.787-2.133 47.36-5.12 70.827-13.312 136.661-54.101 180.053-111.616 43.52-57.472 64.725-131.413 58.197-203.221-0.981-10.923 6.4-19.2 17.067-21.333 32.64-6.485 63.275-27.733 83.328-54.272 20.053-26.581 30.165-61.269 27.435-94.421-1.408-17.067-6.187-33.707-14.165-48.341-7.936-14.507-19.285-27.221-32.853-36.565-13.568-9.387-29.739-15.659-46.72-18.901-17.067-3.243-35.413-3.499-55.168-3.499h-42.667c-11.819 0-21.333-9.515-21.333-21.333s9.515-21.333 21.333-21.333h42.667c20.053 0 41.131 0.128 63.147 4.267 22.059 4.267 43.733 12.373 62.933 25.6s34.987 30.933 46.165 51.285c11.093 20.309 17.28 42.752 19.2 65.28 3.584 43.947-9.387 88.448-35.968 123.605-23.253 30.635-54.827 51.243-91.52 62.123 2.987 77.227-20.48 154.88-67.072 216.661-50.048 66.219-124.715 112.555-206.251 128-17.92 3.328-36.011 5.291-54.187 5.717z" />
<glyph unicode="&#xe927;" glyph-name="mbri-drag-n-drop" d="M163.968 357.248l-112.64 112.768 113.621 113.664c16.213 15.872-14.507 46.635-30.293 30.379l-128.683-128.853c-7.936-7.936-7.936-22.4 0-30.293l127.701-128c20.821-20.907 50.347 10.155 30.293 30.293zM817.365 357.248l112.64 112.768-113.579 113.707c-16.213 15.915 14.507 46.677 30.293 30.421l128.683-128.853c7.979-7.936 7.979-22.4 0-30.293l-127.659-128c-20.821-20.907-50.347 10.155-30.293 30.293zM378.581 142.635l112.768-112.64 113.707 113.579c15.915 16.213 46.677-14.507 30.421-30.293l-128.853-128.683c-7.936-7.979-22.4-7.979-30.293 0l-128 127.659c-20.907 20.821 10.155 50.347 30.293 30.293zM490.667 832c-11.819 0-21.333-9.515-21.333-21.333v-320h-320c-11.819 0-21.333-9.515-21.333-21.333s9.515-21.333 21.333-21.333h320v-320c0-11.819 9.515-21.333 21.333-21.333s21.333 9.515 21.333 21.333v320h320c11.819 0 21.333 9.515 21.333 21.333s-9.515 21.333-21.333 21.333h-320v320c0 11.819-9.515 21.333-21.333 21.333zM378.752 796.288l111.872 112.213 112.768-113.152c15.659-16.085 46.208 14.507 30.080 30.293l-127.872 128.085c-7.893 7.893-22.187 7.893-30.080 0l-126.848-127.275c-20.736-20.693 10.069-50.176 30.080-30.165z" />
<glyph unicode="&#xe928;" glyph-name="mbri-drag-n-drop2" d="M725.333 384c-0.085-5.547-2.304-11.093-6.229-15.019l-42.496-42.453c-18.987-19.755-49.621 11.264-30.080 30.037l27.477 27.435-27.477 27.435c-19.797 18.987 11.179 49.664 30.080 30.037l42.496-42.453c4.053-4.053 6.315-9.259 6.229-15.019zM341.333 384c0.085-5.547 2.304-11.093 6.229-15.019l42.496-42.453c18.987-19.755 49.92 10.965 30.080 30.037l-27.477 27.435 27.477 27.435c19.925 19.2-10.667 49.408-30.080 30.037l-42.496-42.453c-4.053-4.053-6.315-9.259-6.229-15.019zM533.333 192c-5.547 0.085-11.093 2.304-15.019 6.229l-42.453 42.496c-19.627 18.901 10.24 49.792 30.037 30.080l27.435-27.477 27.435 27.477c18.432 19.2 50.048-10.837 30.037-30.080l-42.453-42.496c-4.053-4.053-9.259-6.315-15.019-6.229zM533.333 576c-5.547-0.085-11.093-2.304-15.019-6.229l-42.453-42.496c-19.755-19.029 10.155-49.92 30.037-30.080l27.435 27.477 27.435-27.477c18.859-19.627 49.579 11.307 30.037 30.080l-42.453 42.496c-4.053 4.053-9.259 6.315-15.019 6.229zM533.333 490.667c-11.819 0-21.333-9.515-21.333-21.333v-64h-64c-11.819 0-21.333-9.515-21.333-21.333s9.515-21.333 21.333-21.333h64v-64c0-11.819 9.515-21.333 21.333-21.333s21.333 9.515 21.333 21.333v64h64c11.819 0 21.333 9.515 21.333 21.333s-9.515 21.333-21.333 21.333h-64v64c0 11.819-9.515 21.333-21.333 21.333zM64 832c-35.072 0-64-28.928-64-64v-640c0-35.072 28.928-64 64-64h896c35.072 0 64 28.928 64 64v640c0 35.072-28.928 64-64 64zM64 789.333h896c12.203 0 21.333-9.131 21.333-21.333v-640c0-12.203-9.131-21.333-21.333-21.333h-896c-12.203 0-21.333 9.131-21.333 21.333v640c0 12.203 9.131 21.333 21.333 21.333zM106.667 746.667c-11.776 0-21.333-9.557-21.333-21.333s9.557-21.333 21.333-21.333 21.333 9.557 21.333 21.333-9.557 21.333-21.333 21.333zM192 746.667c-11.776 0-21.333-9.557-21.333-21.333s9.557-21.333 21.333-21.333 21.333 9.557 21.333 21.333-9.557 21.333-21.333 21.333zM277.333 746.667c-11.776 0-21.333-9.557-21.333-21.333s9.557-21.333 21.333-21.333 21.333 9.557 21.333 21.333-9.557 21.333-21.333 21.333zM106.667 661.333c-11.819 0-21.333-9.515-21.333-21.333s9.515-21.333 21.333-21.333h810.667c11.819 0 21.333 9.515 21.333 21.333s-9.515 21.333-21.333 21.333z" />
<glyph unicode="&#xe929;" glyph-name="mbri-edit" d="M874.325 789.333c-5.547-0.085-10.837-2.347-14.763-6.229l-85.333-85.333c-8.32-8.363-8.32-21.845 0-30.208l128-128c8.363-8.32 21.845-8.32 30.208 0l85.333 85.333c8.32 8.363 8.32 21.845 0 30.208l-128 128c-4.096 4.053-9.685 6.315-15.445 6.229zM874.667 737.835l97.835-97.835-55.168-55.168-97.835 97.835zM746.325 661.333c-5.547-0.085-10.837-2.347-14.763-6.229l-341.333-341.333c-3.968-4.011-6.229-9.387-6.229-15.104v-128c0-11.776 9.557-21.333 21.333-21.333h128c5.675 0 11.093 2.261 15.104 6.229l341.333 341.333c8.32 8.363 8.32 21.845 0 30.208l-128 128c-4.096 4.053-9.685 6.315-15.445 6.229zM746.667 609.835l97.835-97.835-320-320h-97.835v97.835zM149.333 533.333h341.333c11.819 0 21.333-9.515 21.333-21.333s-9.515-21.333-21.333-21.333h-341.333c-11.819 0-21.333 9.515-21.333 21.333s9.515 21.333 21.333 21.333zM149.333 661.333h426.667c11.819 0 21.333-9.515 21.333-21.333s-9.515-21.333-21.333-21.333h-426.667c-11.819 0-21.333 9.515-21.333 21.333s9.515 21.333 21.333 21.333zM149.333 789.333h426.667c11.819 0 21.333-9.515 21.333-21.333s-9.515-21.333-21.333-21.333h-426.667c-11.819 0-21.333 9.515-21.333 21.333s9.515 21.333 21.333 21.333zM64 960c-35.072 0-64-28.928-64-64v-896c0-35.072 28.928-64 64-64h597.333c35.072 0 64 28.928 64 64v213.333c0 28.16-42.667 27.648-42.667 0v-213.333c0-12.203-9.131-21.333-21.333-21.333h-597.333c-12.203 0-21.333 9.131-21.333 21.333v896c0 12.203 9.131 21.333 21.333 21.333h597.333c12.203 0 21.333-9.131 21.333-21.333v-170.667c0-28.672 42.667-27.989 42.667 0v170.667c0 35.072-28.928 64-64 64z" />
<glyph unicode="&#xe92a;" glyph-name="mbri-edit2" d="M832 960c-5.547-0.085-11.179-2.347-15.104-6.229l-85.333-85.333c-8.32-8.363-8.32-21.845 0-30.208l170.667-170.667c8.363-8.32 21.845-8.32 30.208 0l85.333 85.333c8.32 8.363 8.32 21.845 0 30.208l-170.667 170.667c-4.096 4.096-9.387 6.315-15.104 6.229zM832 908.501l140.501-140.501-55.168-55.168-140.501 140.501zM661.333 789.333c-5.547-0.085-11.179-2.347-15.104-6.229l-640-640c-3.968-4.011-6.229-9.387-6.229-15.104v-170.667c0-11.776 9.557-21.333 21.333-21.333h170.667c5.675 0 11.093 2.261 15.104 6.229l640 640c8.32 8.363 8.32 21.845 0 30.208l-170.667 170.667c-4.096 4.053-9.387 6.315-15.104 6.229zM661.333 737.835l140.501-140.501-618.667-618.667h-140.501v140.501z" />
<glyph unicode="&#xe92b;" glyph-name="mbri-error" d="M603.392 484.181l-70.059-70.059-70.101 70.059c-18.773 19.285-49.493-11.264-30.123-30.080l70.144-70.101-70.101-70.059c-19.499-18.987 10.453-49.792 30.165-30.080l70.059 70.059 70.101-70.144c19.541-19.456 49.835 11.008 30.123 30.165l-70.229 70.059 70.059 70.101c8.619 8.32 8.661 22.187 0.128 30.421-8.533 8.32-22.016 8.107-30.208-0.341zM64 832c-35.072 0-64-28.928-64-64v-640c0-35.072 28.928-64 64-64h896c35.072 0 64 28.928 64 64v640c0 35.072-28.928 64-64 64zM64 789.333h896c12.203 0 21.333-9.131 21.333-21.333v-640c0-12.203-9.131-21.333-21.333-21.333h-896c-12.203 0-21.333 9.131-21.333 21.333v640c0 12.203 9.131 21.333 21.333 21.333zM106.667 746.667c-11.776 0-21.333-9.557-21.333-21.333s9.557-21.333 21.333-21.333 21.333 9.557 21.333 21.333-9.557 21.333-21.333 21.333zM192 746.667c-11.776 0-21.333-9.557-21.333-21.333s9.557-21.333 21.333-21.333 21.333 9.557 21.333 21.333-9.557 21.333-21.333 21.333zM277.333 746.667c-11.776 0-21.333-9.557-21.333-21.333s9.557-21.333 21.333-21.333 21.333 9.557 21.333 21.333-9.557 21.333-21.333 21.333zM106.667 661.333c-11.819 0-21.333-9.515-21.333-21.333s9.515-21.333 21.333-21.333h810.667c11.819 0 21.333 9.515 21.333 21.333s-9.515 21.333-21.333 21.333z" />
<glyph unicode="&#xe92c;" glyph-name="mbri-extension" d="M792.192 941.227c-24.96 25.003-66.133 25.045-91.051 0.085l-213.12-213.12c-24.96-24.96-24.917-66.133 0-91.051l213.12-213.077c24.96-25.003 66.133-25.045 91.051-0.085l213.12 213.12c24.96 24.96 24.917 66.133 0 91.051l-213.163 213.077zM762.027 911.104l213.077-213.077c8.747-8.789 8.832-21.931 0-30.72l-213.077-213.12c-8.789-8.789-21.931-8.704-30.72 0l-213.077 213.12c-8.747 8.789-8.789 21.931 0 30.72l213.077 213.12c8.789 8.789 21.931 8.704 30.72 0zM64 874.667c-35.072 0-64-28.928-64-64v-298.667c0-35.072 28.928-64 64-64h298.667c35.072 0 64 28.928 64 64v298.667c0 35.072-28.928 64-64 64h-298.667zM64 832h298.667c12.203 0 21.333-9.131 21.333-21.333v-298.667c0-12.203-9.131-21.333-21.333-21.333h-298.667c-12.203 0-21.333 9.131-21.333 21.333v298.667c0 12.203 9.131 21.333 21.333 21.333zM576 362.667c-35.072 0-64-28.928-64-64v-298.667c0-35.072 28.928-64 64-64h298.667c35.072 0 64 28.928 64 64v298.667c0 35.072-28.928 64-64 64h-298.667zM576 320h298.667c12.203 0 21.333-9.131 21.333-21.333v-298.667c0-12.203-9.131-21.333-21.333-21.333h-298.667c-12.203 0-21.333 9.131-21.333 21.333v298.667c0 12.203 9.131 21.333 21.333 21.333zM64 362.667c-35.072 0-64-28.928-64-64v-298.667c0-35.072 28.928-64 64-64h298.667c35.072 0 64 28.928 64 64v298.667c0 35.072-28.928 64-64 64h-298.667zM64 320h298.667c12.203 0 21.333-9.131 21.333-21.333v-298.667c0-12.203-9.131-21.333-21.333-21.333h-298.667c-12.203 0-21.333 9.131-21.333 21.333v298.667c0 12.203 9.131 21.333 21.333 21.333z" />
<glyph unicode="&#xe92d;" glyph-name="mbri-features" d="M768.683 960c-8.533 0.256-16.384-4.523-20.053-12.245l-67.627-144.213-150.869-14.933c-17.152-2.56-24.149-23.552-11.947-35.968l109.781-120.619-29.867-159.275c-2.901-17.579 15.787-30.72 31.36-22.059l138.539 79.445 138.752-79.488c15.573-8.619 34.261 4.523 31.403 22.101l-30.080 159.232 109.824 120.32c12.16 12.373 5.12 33.365-11.947 36.011l-150.955 15.189-67.712 144.213c-3.413 7.253-10.667 12.032-18.645 12.288zM768 888.405l53.163-113.323c2.987-6.4 9.045-10.923 16.085-11.947l121.173-10.752-88.32-98.304c-4.779-4.821-6.912-11.648-5.845-18.347l24.661-126.464-110.592 63.915c-6.4 3.584-14.251 3.584-20.651 0l-110.421-63.915 24.491 126.464c1.067 6.699-1.067 13.525-5.845 18.347l-88.32 98.645 121.173 10.368c7.040 1.067 13.056 5.547 16.085 11.947zM64.427 874.667c-35.328 0-64.427-29.099-64.427-64.427v-297.813c0-35.328 29.099-64.427 64.427-64.427h297.813c35.328 0 64.427 29.099 64.427 64.427v297.813c0 35.328-29.099 64.427-64.427 64.427zM64.427 832h297.813c12.373 0 21.76-9.387 21.76-21.76v-297.813c0-12.373-9.387-21.76-21.76-21.76h-297.813c-12.373 0-21.76 9.387-21.76 21.76v297.813c0 12.373 9.387 21.76 21.76 21.76zM576.427 362.667c-35.328 0-64.427-29.099-64.427-64.427v-297.813c0-35.328 29.099-64.427 64.427-64.427h297.813c35.328 0 64.427 29.099 64.427 64.427v297.813c0 35.328-29.099 64.427-64.427 64.427zM576.427 320h297.813c12.373 0 21.76-9.387 21.76-21.76v-297.813c0-12.373-9.387-21.76-21.76-21.76h-297.813c-12.373 0-21.76 9.387-21.76 21.76v297.813c0 12.373 9.387 21.76 21.76 21.76zM64.427 362.667c-35.328 0-64.427-29.099-64.427-64.427v-297.813c0-35.328 29.099-64.427 64.427-64.427h297.813c35.328 0 64.427 29.099 64.427 64.427v297.813c0 35.328-29.099 64.427-64.427 64.427zM64.427 320h297.813c12.373 0 21.76-9.387 21.76-21.76v-297.813c0-12.373-9.387-21.76-21.76-21.76h-297.813c-12.373 0-21.76 9.387-21.76 21.76v297.813c0 12.373 9.387 21.76 21.76 21.76z" />
<glyph unicode="&#xe92e;" glyph-name="mbri-file" d="M660.992 874.667c-11.776-0.171-21.163-9.557-20.992-21.333v-84.907c0-35.328 29.099-64.427 64.427-64.427h84.907c28.587 0 27.648 42.667 0 42.667h-84.907c-12.373 0-21.76 9.387-21.76 21.76v84.907c0.171 12.032-9.643 21.504-21.675 21.333zM192.427 960c-35.328 0-64.427-29.099-64.427-64.427v-895.147c0-35.328 29.099-64.427 64.427-64.427h639.147c35.328 0 64.427 29.099 64.427 64.427v724.907c0 5.675-2.261 11.093-6.229 15.104l-213.333 213.333c-4.011 3.968-9.387 6.229-15.104 6.229zM192.427 917.333h460.075l200.832-200.832v-716.075c0-12.373-9.387-21.76-21.76-21.76h-639.147c-12.373 0-21.76 9.387-21.76 21.76v895.147c0 12.373 9.387 21.76 21.76 21.76zM277.333 576h469.333c11.819 0 21.333-9.515 21.333-21.333s-9.515-21.333-21.333-21.333h-469.333c-11.819 0-21.333 9.515-21.333 21.333s9.515 21.333 21.333 21.333zM277.333 448h469.333c11.819 0 21.333-9.515 21.333-21.333s-9.515-21.333-21.333-21.333h-469.333c-11.819 0-21.333 9.515-21.333 21.333s9.515 21.333 21.333 21.333zM277.333 320h469.333c11.819 0 21.333-9.515 21.333-21.333s-9.515-21.333-21.333-21.333h-469.333c-11.819 0-21.333 9.515-21.333 21.333s9.515 21.333 21.333 21.333z" />
<glyph unicode="&#xe92f;" glyph-name="mbri-flag" d="M234.667 917.333c-28.16 0-27.861-42.667 0-42.667h689.323l-110.763-203.093c-3.413-6.4-3.413-14.080 0-20.48l110.805-203.093h-689.365c-28.16 0-27.733-42.667 0-42.667h725.333c16.213 0 26.539 17.365 18.773 31.573l-122.453 224.427 122.453 224.427c7.765 14.208-2.56 31.573-18.773 31.573zM106.667 960c-35.072 0-64-28.928-64-64v-896c0-35.072 28.928-64 64-64s64 28.928 64 64v896c0 35.072-28.928 64-64 64zM106.667 917.333c12.203 0 21.333-9.131 21.333-21.333v-896c0-12.203-9.131-21.333-21.333-21.333s-21.333 9.131-21.333 21.333v896c0 12.203 9.131 21.333 21.333 21.333z" />
<glyph unicode="&#xe930;" glyph-name="mbri-folder" d="M64 874.667c-35.072 0-64-28.928-64-64v-725.333c0-35.072 28.928-64 64-64h896c35.072 0 64 28.928 64 64v597.333c0 11.782-9.551 21.333-21.333 21.333h-503.168l-164.395 164.437c-3.859 3.849-9.184 6.229-15.066 6.229-0.013 0-0.027 0-0.040 0h-255.998zM64 832h247.168l164.395-164.437c3.859-3.849 9.184-6.229 15.066-6.229 0.013 0 0.027 0 0.040 0h490.665v-576c0-12.203-9.131-21.333-21.333-21.333h-896c-12.203 0-21.333 9.131-21.333 21.333v725.333c0 12.203 9.131 21.333 21.333 21.333z" />
<glyph unicode="&#xe931;" glyph-name="mbri-gift" d="M322.987 959.659c-16.213 0-32.085-5.973-46.336-13.824-18.944-10.411-34.56-25.856-45.397-44.16-10.88-18.347-17.749-38.955-17.749-59.904 0-21.035 2.987-41.813 11.093-60.8 5.205-12.373 12.373-24.021 21.248-34.347h-181.845c-35.072 0.043-64-28.885-64-63.957v-128c0-35.072 28.928-64 64-64h896c35.072 0 64 28.928 64 64v128c0 35.072-28.928 64-64 64h-204.373c1.707 2.731 3.499 5.291 4.864 8.235 6.528 14.080 8.789 29.568 6.827 44.672s-8.107 29.184-17.323 40.96c-9.216 11.861-21.205 20.907-34.731 26.795-13.525 5.845-28.16 7.424-42.667 7.424-23.893 0-44.8-11.52-62.037-24.832-17.067-13.312-29.696-29.269-41.131-43.819l-34.688-44.288-57.173 87.339c-14.933 22.955-30.891 47.531-52.907 68.779-22.272 21.419-51.115 41.728-85.333 41.728zM336.213 917.077c20.693 0 41.6-13.227 58.795-29.867 17.408-16.768 31.872-38.4 46.933-61.44l51.712-79.104h-134.912c-11.605 0-22.315 0.213-31.915 1.707-9.6 1.408-18.773 4.181-26.752 8.363-15.787 8.235-28.843 23.339-36.267 40.832-5.632 13.355-7.68 27.989-7.68 42.24 0 14.592 4.693 28.245 11.776 40.192 7.040 11.947 17.323 21.888 29.227 28.416 11.861 6.571 25.301 8.704 38.997 8.704zM675.157 832.171c7.936 0 16.085-0.939 23.168-4.011 7.083-2.987 13.483-7.936 18.091-13.824s7.68-13.141 8.619-20.352c0.939-7.168-0.213-14.763-3.157-21.12-4.181-8.96-13.056-16.896-23.339-20.992-10.368-4.139-23.893-4.992-39.552-4.992l-82.987-0.213 27.008 33.067c11.221 14.336 21.845 27.307 33.707 36.523 11.819 9.216 25.472 15.957 38.4 15.957zM64 704h896c12.203 0 21.333-9.131 21.333-21.333v-128c0-12.203-9.131-21.333-21.333-21.333h-896c-12.203 0-21.333 9.131-21.333 21.333v128c0 12.203 9.131 21.333 21.333 21.333zM448 661.333c-11.819 0-21.333-9.515-21.333-21.333v-42.667c0-11.819 9.515-21.333 21.333-21.333s21.333 9.515 21.333 21.333v42.667c0 11.819-9.515 21.333-21.333 21.333zM576 661.333c-11.819 0-21.333-9.515-21.333-21.333v-42.667c0-11.819 9.515-21.333 21.333-21.333s21.333 9.515 21.333 21.333v42.667c0 11.819-9.515 21.333-21.333 21.333zM106.667 448c-11.776-0.171-21.504-9.557-21.333-21.333v-426.667c0-35.072 28.928-64 64-64h725.333c35.072 0 64 28.928 64 64v426.667c0.213 14.421-10.581 21.333-21.333 21.333s-21.547-6.912-21.333-21.333v-426.667c0-12.16-9.131-21.333-21.333-21.333h-277.333v448c0 11.819-9.515 21.333-21.333 21.333s-21.333-9.515-21.333-21.333v-448h-85.333v448c0 11.819-9.515 21.333-21.333 21.333s-21.333-9.515-21.333-21.333v-448h-277.333c-12.203 0-21.333 9.173-21.333 21.333v426.667c0.171 12.032-9.301 21.504-21.333 21.333z" />
<glyph unicode="&#xe932;" glyph-name="mbri-github" d="M512 960c-282.453 0-512-229.461-512-512 0-244.139 172.373-446.293 401.323-497.323 1.213-0.245 2.607-0.385 4.033-0.385 11.437 0 20.772 9 21.309 20.305l0.002 194.736c0 15.701 7.68 29.867 20.053 37.333 5.881 3.863 9.71 10.429 9.71 17.889 0 10.050-6.95 18.477-16.306 20.737-132.754 23.923-226.791 109.854-226.791 206.707 0 37.419 14.080 74.112 38.656 105.387 2.412 3.319 3.899 7.449 4.010 11.92l0.001 128.027 110.677-50.688c2.789-1.431 6.085-2.27 9.576-2.27 2.294 0 4.504 0.362 6.575 1.032 38.718 13.355 82.238 19.926 129.172 19.926 46.805 0 90.453-6.528 129.28-20.053 1.897-0.613 4.080-0.966 6.346-0.966 3.539 0 6.877 0.862 9.815 2.387l110.559 50.632v-128c0.112-4.498 1.598-8.627 4.053-12.008 24.491-31.213 38.613-67.906 38.613-105.325 0-96.853-94.037-182.784-226.688-206.677-9.47-2.313-16.389-10.725-16.389-20.752 0-7.47 3.839-14.043 9.652-17.854 12.454-7.517 20.134-21.682 20.134-37.383v-194.688c0.534-11.356 9.871-20.361 21.311-20.361 1.442 0 2.85 0.143 4.212 0.416 228.728 51.007 401.101 253.161 401.101 497.3 0 282.539-229.547 512-512 512zM512 917.333c259.413 0 469.333-209.92 469.333-469.333 0-214.357-145.152-389.12-341.333-445.355v162.688c0 16.64-4.992 32.128-13.355 45.355 129.067 35.072 226.688 124.032 226.688 237.312 0 45.227-15.957 87.68-42.667 123.989v153.344c0.012 0.27 0.019 0.587 0.019 0.905 0 11.782-9.551 21.333-21.333 21.333-3.425 0-6.661-0.807-9.529-2.241l-134.49-61.384c-41.6 13.355-85.76 20.053-133.333 20.053-47.531 0-91.733-6.741-133.333-20.053l-134.613 61.44c-2.745 1.378-5.981 2.185-9.406 2.185-11.782 0-21.333-9.551-21.333-21.333 0-0.318 0.007-0.635 0.021-0.95l-0.002-153.299c-26.709-36.267-42.667-78.805-42.667-123.989 0-113.28 97.621-202.24 226.688-237.355-8.363-13.227-13.355-28.587-13.355-45.312v-21.333c-28.587-10.24-53.163-17.493-70.656-17.323-20.053 0-31.787 5.419-45.355 27.904-16.64 27.819-31.744 49.749-47.915 66.688-16.128 16.896-34.389 28.8-55.979 33.28-1.206 0.242-2.592 0.38-4.011 0.38s-2.805-0.138-4.146-0.403c-11.647 0.022-21.198-9.529-21.198-21.311s9.551-21.333 21.333-21.333c12.373-2.56 21.205-7.253 33.28-19.968 12.203-12.715 26.539-33.195 42.752-60.032 19.371-32.213 49.92-47.787 81.28-48 22.699-0.341 46.251 6.4 70.656 14.635v-96c-196.181 56.363-341.376 231.168-341.376 445.483 0 259.413 209.92 469.333 469.333 469.333z" />
<glyph unicode="&#xe933;" glyph-name="mbri-globe-2" d="M277.333 490.667h426.667c11.819 0 21.333-9.515 21.333-21.333s-9.515-21.333-21.333-21.333h-426.667c-11.819 0-21.333 9.515-21.333 21.333s9.515 21.333 21.333 21.333zM896 469.333c0-11.776-9.557-21.333-21.333-21.333s-21.333 9.557-21.333 21.333 9.557 21.333 21.333 21.333 21.333-9.557 21.333-21.333zM128 469.333c0-11.776-9.557-21.333-21.333-21.333s-21.333 9.557-21.333 21.333 9.557 21.333 21.333 21.333 21.333-9.557 21.333-21.333zM490.667 960c-270.72 0-490.667-219.947-490.667-490.667s219.947-490.667 490.667-490.667 490.667 219.947 490.667 490.667-219.947 490.667-490.667 490.667zM490.667 917.333c73.216 0 141.397-46.507 192.768-126.933-121.6-58.027-263.424-58.027-385.365 0.171 51.371 80.256 119.467 126.763 192.597 126.763zM318.72 883.072c-23.765-23.125-42.155-49.493-58.283-72.235-11.008 6.613-21.76 13.653-32.341 21.333 27.904 20.309 58.197 37.461 90.624 50.901zM662.613 883.072c32.427-13.44 62.72-30.635 90.624-50.901-10.539-7.68-21.333-14.805-32.341-21.419-16.555 27.563-39.765 51.712-58.24 72.32zM787.499 804.48c92.587-82.005 151.168-201.515 151.168-335.147s-58.539-253.141-151.168-335.147c-14.72 11.179-29.867 21.547-45.483 30.891 43.221 83.968 68.651 189.483 68.651 304.256s-25.429 220.331-68.693 304.341c15.659 9.301 30.805 19.627 45.525 30.805zM193.664 804.48c14.72-11.307 30.037-21.333 45.653-30.72-43.136-84.053-68.651-189.653-68.651-304.427s25.429-220.331 68.693-304.341c-15.659-9.387-30.933-19.413-45.653-30.72-92.587 82.048-151.040 201.515-151.040 335.061s58.453 253.099 151.040 335.104zM276.864 753.408c134.997-65.365 292.864-65.28 427.52-0.085 39.381-76.971 63.616-175.872 63.616-283.989 0-108.075-24.192-206.933-63.488-283.904-65.493 31.744-136.448 49.237-207.659 49.237-75.264 0-150.613-15.787-219.947-49.323-39.339 76.971-63.573 175.872-63.573 283.989 0 108.16 24.192 207.061 63.573 284.075zM496.213 192c64.171-0.853 128.085-15.445 187.221-43.648-51.371-80.427-119.552-127.019-192.768-127.019-73.173 0-141.312 46.507-192.683 126.848 62.72 29.867 130.56 44.672 198.272 43.819zM260.437 127.915c16.555-27.563 39.765-51.712 58.24-72.32-32.427 13.44-62.72 30.635-90.709 50.901 10.539 7.68 21.333 14.805 32.427 21.419zM720.981 127.915c11.008-6.613 21.76-13.653 32.341-21.333-27.989-20.267-58.283-37.547-90.667-50.987 23.808 23.168 42.24 49.579 58.368 72.32z" />
<glyph unicode="&#xe934;" glyph-name="mbri-globe" d="M661.333 874.667c-19.2 0-27.989-23.467-15.104-36.437 0 0 9.216-9.216 18.688-23.381 9.472-14.208 17.749-32.64 17.749-46.848 0-3.541-3.627-16.299-11.008-30.72-7.381-14.507-17.749-31.147-28.331-47.872-10.581-16.64-21.419-33.195-29.867-48.213-8.533-14.933-16.128-26.283-16.128-43.861 0-17.792 10.667-36.693 29.013-47.659 18.347-11.008 43.264-16.341 77.653-16.341 29.611 0 47.36-5.333 55.68-10.325 8.277-4.992 8.32-7.467 8.32-11.008 0-6.656 3.157-13.739 6.997-17.92s7.765-6.272 11.264-7.851c6.955-3.072 13.227-4.096 20.139-5.12 13.824-1.877 29.781-2.261 45.227-3.712 19.328-1.835 43.648-6.741 43.605-11.605 0-10.667-9.813-24.192-29.739-37.419-20.352-13.525-48.896-23.040-76.16-23.040-34.389 0-59.307-5.333-77.653-16.341s-29.013-29.867-29.013-47.659c0-17.493-8.192-21.333-21.333-21.333-17.792 0-33.067-8.235-44.373-19.627-11.392-11.307-19.627-26.581-19.627-44.373s6.528-45.141 26.88-80.085c20.395-34.987 55.040-75.093 111.445-108.928 23.467-14.080 45.44 22.613 22.016 36.693-50.347 30.165-79.616 64.683-96.597 93.739-16.939 29.013-21.077 55.040-21.077 58.581-1.152 12.715 9.173 21.333 21.333 21.333 17.792 0 33.067 8.235 44.373 19.627 11.392 11.307 19.627 26.581 19.627 44.373 0 3.541 0 5.973 8.32 11.008 8.32 4.992 26.027 10.325 55.68 10.325 36.693 0 72.192 11.819 99.84 30.293 27.648 18.347 49.493 44.373 49.493 76.373 0 10.667-4.907 21.333-11.648 28.16-6.827 6.827-14.592 10.752-22.443 13.653-15.659 5.632-32.853 7.381-49.493 8.789-16.555 1.365-36.949 1.493-41.813 8.533-7.765 11.093-13.227 20.181-31.573 31.147-18.389 11.136-43.307 16.384-77.696 16.384-29.611 0-47.36 5.333-55.68 10.325-11.307 6.528-4.949 21.333 2.261 33.835 7.509 13.227 18.005 29.44 28.757 46.336 10.752 16.939 21.76 34.56 30.293 51.371 8.661 16.853 15.701 32.427 15.701 50.176 0 28.459-13.056 52.693-24.917 70.485-11.861 17.835-23.979 29.952-23.979 29.952-4.011 4.053-9.387 6.187-15.104 6.187zM106.667 576c-14.421 0.213-21.333-10.581-21.333-21.333s6.912-21.547 21.333-21.333h36.267c16.128 0 21.76-42.667 49.067-42.667h42.667c13.824-0.213 21.333-9.643 21.333-21.333v-64c0-18.347 2.688-37.419 12.075-54.315 9.387-16.939 28.843-31.019 51.925-31.019h42.667c13.483-0.213 21.333-9.984 21.333-21.333v-213.333c0-28.459 17.408-48.555 33.152-56.405 15.787-7.893 30.848-7.595 30.848-7.595 14.421-0.213 21.333 10.581 21.333 21.333s-6.912 21.547-21.333 21.333c0 0-6.272 0.299-11.819 3.072-5.547 2.816-9.515 4.053-9.515 18.261v213.333c0 18.048-8.747 32.725-20.053 43.947-11.221 11.307-25.899 20.053-43.947 20.053h-42.667c-17.493 0-21.333 21.333-21.333 42.667v64c0 18.048-8.747 32.725-20.053 43.947-11.221 11.307-25.899 20.053-43.947 20.053h-21.333c-21.333 0-24.235 13.653-35.328 28.416-5.205 6.997-16.085 14.251-28.672 14.251zM512 960c-282.453 0-512-229.547-512-512s229.547-512 512-512 512 229.547 512 512-229.547 512-512 512zM512 917.333c259.413 0 469.333-209.92 469.333-469.333s-209.92-469.333-469.333-469.333-469.333 209.92-469.333 469.333 209.92 469.333 469.333 469.333z" />
<glyph unicode="&#xe935;" glyph-name="mbri-growing-chart" d="M874.667 618.667c-14.421 0.213-21.333-10.581-21.333-21.333s6.912-21.547 21.333-21.333h106.667v-106.667c-0.213-14.421 10.581-21.333 21.333-21.333s21.547 6.912 21.333 21.333v128c0 11.776-9.557 21.333-21.333 21.333zM618.667 243.968l-155.136 155.392c-8.32 8.32-21.76 8.32-30.123 0l-341.12-340.907c-20.309-19.541 10.069-51.072 30.165-30.165l325.547 325.845 155.947-155.392c8.32-8.32 21.845-8.32 30.165 0l298.453 298.325c8.747 8.747 7.68 22.485-0.427 30.464-7.936 7.979-22.187 6.827-27.904 0.299zM21.333 960c-11.776-0.171-21.504-9.557-21.333-21.333v-981.333c0-11.776 9.557-21.333 21.333-21.333h981.333c14.421-0.213 21.333 10.581 21.333 21.333s-6.912 21.547-21.333 21.333h-960v960c0.171 12.032-9.301 21.504-21.333 21.333z" />
<glyph unicode="&#xe936;" glyph-name="mbri-hearth" d="M277.333 874.667c-72.96 0-142.336-34.133-192.597-84.651-50.347-50.688-84.736-121.6-84.736-192.683 0-82.603 26.24-163.755 73.259-231.424 46.507-66.901 107.435-120.619 169.557-169.387 81.707-64 168.533-121.685 258.816-172.459 3.243-1.792 6.827-2.731 10.411-2.731s7.168 0.939 10.411 2.731c90.283 50.773 176.64 108.501 258.347 172.501 62.080 48.725 123.051 102.4 169.515 169.387 46.933 67.541 73.685 148.608 73.685 231.381 0 71.253-34.901 142.080-85.163 192.683-50.432 50.773-121.259 84.651-192.597 84.651-49.579 0-100.267-9.728-145.237-34.261-36.907-20.139-64.597-52.48-89.003-86.485-24.533 34.048-52.48 66.389-89.429 86.485-44.8 24.448-94.72 34.261-145.237 34.261zM277.333 832c45.013 0 87.467-8.704 124.757-29.099 37.632-20.48 69.973-51.499 91.477-88.32 8.235-14.080 28.587-14.080 36.864 0 21.589 36.907 53.461 67.84 91.051 88.32 37.291 20.309 80.811 29.099 124.757 29.099 57.515 0 119.467-28.843 162.261-72.021 42.965-43.264 72.832-105.813 72.832-162.645 0-73.472-23.893-146.432-66.005-207.104-42.581-61.312-100.139-112.512-160.853-160.128-76.715-60.16-158.037-113.749-242.475-161.92-84.48 48.213-166.187 101.803-242.773 161.92-60.843 47.616-118.357 98.816-160.981 160.128-42.112 60.587-65.579 133.547-65.579 207.104 0 56.917 29.44 119.381 72.405 162.688 43.093 43.349 102.827 71.979 162.261 71.979z" />
<glyph unicode="&#xe937;" glyph-name="mbri-help" d="M21.333 746.667h85.333c11.819 0 21.333-9.515 21.333-21.333s-9.515-21.333-21.333-21.333h-85.333c-11.819 0-21.333 9.515-21.333 21.333s9.515 21.333 21.333 21.333zM21.333 576h85.333c11.819 0 21.333-9.515 21.333-21.333s-9.515-21.333-21.333-21.333h-85.333c-11.819 0-21.333 9.515-21.333 21.333s9.515 21.333 21.333 21.333zM21.333 405.333h85.333c11.819 0 21.333-9.515 21.333-21.333s-9.515-21.333-21.333-21.333h-85.333c-11.819 0-21.333 9.515-21.333 21.333s9.515 21.333 21.333 21.333zM234.667 874.667c-35.072 0-64-28.928-64-64v-554.667c0-35.072 28.928-64 64-64h106.667v-149.333c0-18.987 23.040-28.501 36.437-15.104l164.395 164.437h417.835c35.072 0 64 28.928 64 64v554.667c0 35.072-28.928 64-64 64zM234.667 832h725.333c12.203 0 21.333-9.131 21.333-21.333v-554.667c0-12.203-9.131-21.333-21.333-21.333h-426.667c-5.675 0-11.093-2.261-15.104-6.229l-134.229-134.272v119.168c0 11.776-9.557 21.333-21.333 21.333h-128c-12.203 0-21.333 9.131-21.333 21.333v554.667c0 12.203 9.131 21.333 21.333 21.333z" />
<glyph unicode="&#xe938;" glyph-name="mbri-home" d="M106.667 576c-11.776-0.171-21.504-9.557-21.333-21.333v-469.333c0-35.072 28.885-64 64-64h213.333c11.776 0 21.333 9.557 21.333 21.333v234.667c0 71.253 56.661 128 128 128 71.253 0 128-56.747 128-128v-234.667c0-11.776 9.557-21.333 21.333-21.333h213.333c35.115 0 64 28.928 64 64l0.171 469.333c0.213 14.421-10.667 21.333-21.504 21.333-10.795 0-21.333-6.912-21.163-21.333l-0.171-469.333c0-12.203-9.131-21.333-21.333-21.333h-192v213.333c0 94.165-76.459 170.667-170.667 170.667-94.293 0-170.667-76.501-170.667-170.667v-213.333h-192c-12.203 0-21.333 9.131-21.333 21.333v469.333c0.171 12.032-9.301 21.504-21.333 21.333zM512 874.667c-19.627 0-37.333-6.485-51.115-12.373-13.781-5.973-23.893-12.032-23.893-12.032l-425.899-234.155c-23.893-13.653-2.56-50.005 20.48-37.333l427.392 235.051s7.552 4.608 18.603 9.387c11.221 4.523 25.472 8.789 34.432 8.789s23.253-4.181 34.347-8.96c11.093-4.693 18.645-9.387 18.645-9.387l0.768-0.427 426.539-234.496c25.003-13.781 44.8 24.149 20.608 37.419l-425.899 234.197s-10.112 6.059-23.893 11.947c-13.867 5.973-31.616 12.373-51.115 12.373z" />
<glyph unicode="&#xe939;" glyph-name="mbri-hot-cup" d="M234.667 960c-11.819 0-21.333-9.515-21.333-21.333v-85.333c0-11.819 9.515-21.333 21.333-21.333s21.333 9.515 21.333 21.333v85.333c0 11.819-9.515 21.333-21.333 21.333zM405.333 960c-11.819 0-21.333-9.515-21.333-21.333v-85.333c0-11.819 9.515-21.333 21.333-21.333s21.333 9.515 21.333 21.333v85.333c0 11.819-9.515 21.333-21.333 21.333zM576 960c-11.819 0-21.333-9.515-21.333-21.333v-85.333c0-11.819 9.515-21.333 21.333-21.333s21.333 9.515 21.333 21.333v85.333c0 11.819-9.515 21.333-21.333 21.333zM21.333 789.333c-11.776-0.171-21.504-9.557-21.333-21.333v-448c0-150.187 95.275-278.016 225.408-341.333h-204.075c-11.819 0-21.333-9.515-21.333-21.333s9.515-21.333 21.333-21.333h768c11.819 0 21.333 9.515 21.333 21.333s-9.515 21.333-21.333 21.333h-204.075c130.133 63.317 225.408 191.147 225.408 341.333v448c0.213 14.421-10.581 21.333-21.333 21.333s-21.547-6.912-21.333-21.333v-448c0-187.947-173.227-341.333-362.667-341.333s-362.667 153.387-362.667 341.333v448c0.171 12.032-9.301 21.504-21.333 21.333zM106.667 661.333c-11.819 0-21.333-9.515-21.333-21.333s9.515-21.333 21.333-21.333h597.333c11.819 0 21.333 9.515 21.333 21.333s-9.515 21.333-21.333 21.333zM874.667 661.333c-14.421 0.213-21.333-10.581-21.333-21.333s6.912-21.547 21.333-21.333c59.179 0 106.667-47.488 106.667-106.667s-47.488-106.667-106.667-106.667c-14.421 0.213-21.333-10.581-21.333-21.333s6.912-21.547 21.333-21.333c82.219 0 149.333 67.115 149.333 149.333s-67.115 149.333-149.333 149.333z" />
<glyph unicode="&#xe93a;" glyph-name="mbri-idea" d="M490.667 960c-11.819 0-21.333-9.515-21.333-21.333v-85.333c0-11.819 9.515-21.333 21.333-21.333s21.333 9.515 21.333 21.333v85.333c0 11.819-9.515 21.333-21.333 21.333zM192 832c-19.115 0-28.587-23.040-14.848-36.437l42.496-42.667c19.413-19.541 49.28 11.605 30.123 30.123l-42.539 42.752c-4.011 4.096-9.472 6.229-15.232 6.229zM789.333 832c-5.76 0-11.264-2.133-15.275-6.229l-42.581-42.752c-19.2-18.517 10.667-49.664 30.080-30.165l42.539 42.667c13.781 13.397 4.267 36.48-14.805 36.48zM490.667 746.667c-66.987 0-126.72-38.187-168.235-96.427-41.6-58.197-66.432-136.96-66.432-223.573s24.832-165.376 66.432-223.573c41.515-58.24 101.248-96.427 168.235-96.427s126.72 38.187 168.235 96.427c41.6 58.197 66.432 136.96 66.432 223.573s-24.832 165.376-66.432 223.573c-41.515 58.24-101.248 96.427-168.235 96.427zM490.667 704c50.859 0 97.877-28.715 133.547-78.592 35.584-49.92 58.453-120.405 58.453-198.741s-22.869-148.907-58.453-198.741c-19.968-27.861-43.52-48.853-69.205-62.165 0.853 54.613 7.253 100.267 16.981 128 11.947 34.219 29.227 55.467 57.003 71.552 19.712 10.88 11.093 40.021-11.179 40.021-3.541-0.128-6.997-1.28-10.069-3.072-36.011-20.821-61.312-52.693-75.947-94.421-14.165-40.533-19.499-90.453-19.797-152.832-16.128-5.888-28.928-4.693-42.667 0-0.299 62.379-5.632 112.299-19.84 152.832-14.592 41.728-39.893 73.6-75.947 94.421-2.987 1.792-6.485 2.987-10.027 3.072-22.187 0-30.891-29.141-11.179-40.021 27.733-16.043 45.013-37.333 57.003-71.552 9.685-27.733 16.128-74.069 16.981-128-25.685 13.312-49.237 34.304-69.12 62.165-35.712 49.92-58.539 120.405-58.539 198.741s22.869 148.907 58.453 198.741c35.712 49.92 82.773 78.592 133.547 78.592zM64 448c-11.819 0-21.333-9.515-21.333-21.333s9.515-21.333 21.333-21.333h85.333c11.819 0 21.333 9.515 21.333 21.333s-9.515 21.333-21.333 21.333zM832 448c-11.819 0-21.333-9.515-21.333-21.333s9.515-21.333 21.333-21.333h85.333c11.819 0 21.333 9.515 21.333 21.333s-9.515 21.333-21.333 21.333zM362.667 64c-11.819 0-21.333-9.515-21.333-21.333s9.515-21.333 21.333-21.333h256c11.819 0 21.333 9.515 21.333 21.333s-9.515 21.333-21.333 21.333zM362.667-21.333c-11.819 0-21.333-9.515-21.333-21.333s9.515-21.333 21.333-21.333h256c11.819 0 21.333 9.515 21.333 21.333s-9.515 21.333-21.333 21.333z" />
<glyph unicode="&#xe93b;" glyph-name="mbri-image-gallery" d="M362.667 746.667c-2.432 0-5.803-0.427-8.107-1.28l-313.813-119.808c-33.365-12.715-49.067-51.371-36.352-84.053l170.453-436.565c12.8-32.683 50.859-51.712 83.968-34.261l154.795 80.427c27.435 13.227 6.699 51.285-19.2 37.973l-154.624-80.512c-8.661-4.565-21.248 1.28-25.6 12.587l-12.373 31.701 84.352 42.24c20.48 9.813 13.952 39.765-8.832 39.552-3.328 0-6.613-0.853-9.557-2.432l-81.493-39.595-142.507 365.227c-4.48 11.307 0.555 23.68 11.264 27.733l314.027 119.552c23.339 8.96 17.067 41.515-6.4 41.515zM533.333 490.667c-3.413 0-6.485-0.768-9.515-2.261l-85.333-42.667c-25.515-11.392-4.053-50.901 20.053-37.675l65.28 32.683 33.109-66.261c5.248-10.496 18.048-14.805 28.587-9.557l151.637 75.819 32.256-65.067c12.117-27.093 52.48-6.997 38.187 18.987l-41.813 84.181c-5.291 10.496-18.091 14.805-28.587 9.557l-151.68-75.819-33.109 66.261c-3.584 7.168-10.88 11.733-19.072 11.819zM558.848 827.221c-31.573 13.397-68.352-2.347-81.365-34.816l-174.123-434.432c-13.056-32.427 2.219-70.272 33.792-83.627l384-162.901c31.573-13.397 68.352 2.347 81.365 34.816l174.123 434.432c13.056 32.427-2.219 70.272-33.792 83.627zM543.061 787.712l384-162.859c10.923-4.693 15.787-16.64 11.221-27.861l-150.4-375.211-422.4 179.2 150.443 375.125c4.565 11.307 16.213 16.213 27.179 11.605zM349.653 361.472l422.4-179.2-7.936-19.712c-4.565-11.307-16.213-16.213-27.179-11.605l-384 162.859c-10.965 4.693-15.787 16.64-11.264 27.861zM597.333 704c-46.933 0-85.333-38.4-85.333-85.333s38.4-85.333 85.333-85.333 85.333 38.4 85.333 85.333-38.4 85.333-85.333 85.333zM597.333 661.333c23.808 0 42.667-18.859 42.667-42.667s-18.859-42.667-42.667-42.667-42.667 18.859-42.667 42.667 18.859 42.667 42.667 42.667zM192 576c-35.115 0-64-28.885-64-64s28.885-64 64-64 64 28.885 64 64-28.885 64-64 64zM192 533.333c12.032 0 21.333-9.301 21.333-21.333s-9.301-21.333-21.333-21.333c-12.032 0-21.333 9.301-21.333 21.333s9.301 21.333 21.333 21.333zM277.333 448c-9.387 0.085-17.408-5.675-20.267-14.592l-42.667-128c-3.2-9.685 2.005-28.075 20.267-28.075 4.267 0 15.36 0 20.267 14.592l42.667 128c4.779 13.781-5.675 27.989-20.267 28.075z" />
<glyph unicode="&#xe93c;" glyph-name="mbri-image-slider" d="M661.333 661.333c-5.547-0.085-11.179-2.347-15.104-6.272l-155.563-155.733-70.272 70.272c-8.32 8.405-21.845 8.405-30.165 0l-128-128c-19.413-18.773 11.093-49.28 30.165-30.293l112.939 113.067 70.229-70.315c8.32-8.32 21.845-8.32 30.165 0l155.605 155.733 70.229-70.315c19.115-19.968 49.664 11.435 30.165 30.165l-85.333 85.461c-4.096 4.096-9.301 6.4-15.061 6.272zM384 789.333c-46.933 0-85.333-38.4-85.333-85.333s38.4-85.333 85.333-85.333 85.333 38.4 85.333 85.333-38.4 85.333-85.333 85.333zM384 746.667c23.808 0 42.667-18.859 42.667-42.667s-18.859-42.667-42.667-42.667-42.667 18.859-42.667 42.667 18.859 42.667 42.667 42.667zM277.333 362.667h469.333c11.819 0 21.333-9.515 21.333-21.333s-9.515-21.333-21.333-21.333h-469.333c-11.819 0-21.333 9.515-21.333 21.333s9.515 21.333 21.333 21.333zM853.333 85.333c0-11.782-9.551-21.333-21.333-21.333s-21.333 9.551-21.333 21.333c0 11.782 9.551 21.333 21.333 21.333s21.333-9.551 21.333-21.333zM213.333 85.333c0-11.782-9.551-21.333-21.333-21.333s-21.333 9.551-21.333 21.333c0 11.782 9.551 21.333 21.333 21.333s21.333-9.551 21.333-21.333zM512 149.333c-46.933 0-85.333-38.4-85.333-85.333s38.4-85.333 85.333-85.333 85.333 38.4 85.333 85.333-38.4 85.333-85.333 85.333zM512 106.667c23.808 0 42.667-18.859 42.667-42.667s-18.859-42.667-42.667-42.667-42.667 18.859-42.667 42.667 18.859 42.667 42.667 42.667zM106.667 832c14.421 0 21.333-10.667 21.333-21.333s-6.997-21.333-21.333-21.333h-42.667c-12.203 0-21.333-9.131-21.333-21.333v-426.667c0-12.203 9.131-21.333 21.333-21.333h42.667c14.635 0 21.333-10.581 21.333-21.333s-7.381-21.333-21.333-21.333h-42.667c-35.072 0-64 28.928-64 64v426.667c0 35.072 28.928 64 64 64zM917.333 832c-14.421 0-21.333-10.667-21.333-21.333s6.997-21.333 21.333-21.333h42.667c12.203 0 21.333-9.131 21.333-21.333v-426.667c0-12.203-9.131-21.333-21.333-21.333h-42.667c-14.635 0-21.333-10.581-21.333-21.333s7.381-21.333 21.333-21.333h42.667c35.072 0 64 28.928 64 64v426.667c0 35.072-28.928 64-64 64zM234.667 917.333c-35.072 0-64-28.928-64-64v-554.667c0-35.072 28.928-64 64-64h554.667c35.072 0 64 28.928 64 64v554.667c0 35.072-28.928 64-64 64h-554.667zM234.667 874.667h554.667c12.203 0 21.333-9.131 21.333-21.333v-554.667c0-12.203-9.131-21.333-21.333-21.333h-554.667c-12.203 0-21.333 9.131-21.333 21.333v554.667c0 12.203 9.131 21.333 21.333 21.333z" />
<glyph unicode="&#xe93d;" glyph-name="mbri-info" d="M512 576c-46.933 0-85.333-38.4-85.333-85.333v-298.667c0-46.933 38.4-85.333 85.333-85.333s85.333 38.4 85.333 85.333v298.667c0 46.933-38.4 85.333-85.333 85.333zM512 533.333c24.021 0 42.667-18.645 42.667-42.667v-298.667c0-24.021-18.645-42.667-42.667-42.667s-42.667 18.645-42.667 42.667v298.667c0 24.021 18.645 42.667 42.667 42.667zM512 789.333c-46.933 0-85.333-38.4-85.333-85.333s38.4-85.333 85.333-85.333 85.333 38.4 85.333 85.333-38.4 85.333-85.333 85.333zM512 746.667c23.808 0 42.667-18.859 42.667-42.667s-18.859-42.667-42.667-42.667-42.667 18.859-42.667 42.667 18.859 42.667 42.667 42.667zM512 960c-282.453 0-512-229.547-512-512s229.547-512 512-512 512 229.547 512 512-229.547 512-512 512zM512 917.333c259.413 0 469.333-209.92 469.333-469.333s-209.92-469.333-469.333-469.333-469.333 209.92-469.333 469.333 209.92 469.333 469.333 469.333z" />
<glyph unicode="&#xe93e;" glyph-name="mbri-italic" d="M640 959.445c-46.933 0-85.333-38.4-85.333-85.333 0-46.848 38.4-85.333 85.333-85.333s85.333 38.485 85.333 85.333c0 46.933-38.4 85.333-85.333 85.333zM640 916.779c23.808 0 42.667-18.859 42.667-42.667s-18.859-42.667-42.667-42.667-42.667 18.859-42.667 42.667 18.859 42.667 42.667 42.667zM562.688 746.667c-14.635 0-28.501-2.688-41.387-6.656-38.528-11.947-68.907-38.4-90.624-64-29.013-34.133-43.947-68.011-43.947-68.011-12.245-25.6 22.955-46.72 37.248-17.323 0 0 13.867 29.44 38.699 58.667 17.067 20.053 38.827 38.272 64 47.915 10.027 3.84 13.739-7.083 14.677-14.677 1.621-13.867-4.011-41.685-16.043-75.947-24.021-68.821-72.32-164.693-118.613-260.096-46.336-95.445-90.453-190.421-104.021-266.667-6.827-38.101-6.997-72.107 9.301-100.011 16.341-27.733 49.92-43.947 92.032-43.947 58.539 0 105.899 36.565 138.667 70.656 32.555 34.133 51.883 69.333 51.883 69.333 12.587 21.888-23.381 44.245-37.291 20.053 0 0-16.64-29.952-45.355-59.947-13.653-14.336-29.141-28.587-46.72-38.656-10.027-5.845-17.707 1.963-18.645 13.227-1.28 13.653 4.693 42.112 17.28 75.947 25.301 67.968 74.539 160.597 120.021 254.72 45.44 94.208 87.723 189.44 97.28 265.387 4.821 37.973 1.152 73.088-18.645 100.011-19.712 26.88-54.443 39.936-99.84 39.936zM577.323 704c26.88-2.432 41.984-10.752 50.773-22.613 10.24-14.080 14.72-37.12 10.667-69.376-8.107-64.597-48.341-158.805-93.44-251.989-44.928-93.227-94.165-186.027-121.173-258.688-13.653-36.352-22.827-67.285-20.053-94.72 0.939-9.173 4.395-18.517 9.387-26.624-28.459-4.267-53.675 2.859-64 21.333-7.851 14.080-11.349 38.827-5.419 72.107 11.947 66.432 54.016 161.195 100.011 256 45.995 94.72 95.445 190.037 121.344 263.979 13.013 36.992 21.333 68.181 17.365 96-0.725 5.12-3.328 9.813-5.333 14.677z" />
<glyph unicode="&#xe93f;" glyph-name="mbri-key" d="M192 832c-35.115 0-64-28.885-64-64s28.885-64 64-64 64 28.885 64 64-28.885 64-64 64zM192 789.333c12.032 0 21.333-9.301 21.333-21.333s-9.301-21.333-21.333-21.333c-12.032 0-21.333 9.301-21.333 21.333s9.301 21.333 21.333 21.333zM277.333 960c-152.917 0-277.333-124.416-277.333-277.333s124.416-277.333 277.333-277.333c33.451 0 68.267 8.832 99.328 19.84l482.901-482.987c3.854-3.824 9.163-6.187 15.023-6.187 0.028 0 0.057 0 0.085 0h127.996c11.782 0 21.333 9.551 21.333 21.333v128c0 0.011 0 0.025 0 0.038 0 5.882-2.38 11.207-6.23 15.066l-85.333 85.333c-3.859 3.849-9.184 6.229-15.066 6.229-0.013 0-0.027 0-0.040 0h-21.331v21.333c0 0.011 0 0.025 0 0.038 0 5.882-2.38 11.207-6.23 15.066l-85.333 85.333c-3.859 3.849-9.184 6.229-15.066 6.229-0.013 0-0.027 0-0.040 0h-63.998v64c0 0.011 0 0.025 0 0.038 0 5.882-2.38 11.207-6.23 15.066l-85.333 85.333c-3.859 3.849-9.184 6.229-15.066 6.229-0.013 0-0.027 0-0.040 0h-21.331v21.333c0 0.011 0 0.025 0 0.038 0 5.882-2.38 11.207-6.23 15.066l-56.32 56.234c11.136 31.061 19.883 65.877 19.883 99.328 0 152.917-124.416 277.333-277.333 277.333zM277.333 917.333c129.835 0 234.667-104.832 234.667-234.667 0-32-8.107-70.912-19.627-98.347-1.086-2.474-1.719-5.358-1.719-8.389 0-5.887 2.385-11.218 6.241-15.078l57.771-57.643v-33.835c0-11.782 9.551-21.333 21.333-21.333h33.835l72.832-72.875v-76.501c0-11.782 9.551-21.333 21.333-21.333h76.501l72.832-72.832v-33.835c0-11.782 9.551-21.333 21.333-21.333h33.835l72.832-72.832v-97.835h-97.835l-484.395 484.437c-3.863 3.874-9.205 6.271-15.108 6.271-3.020 0-5.893-0.627-8.497-1.759-27.254-11.467-66.209-19.573-98.166-19.573-129.835-0.043-234.667 104.789-234.667 234.624s104.832 234.667 234.667 234.667z" />
<glyph unicode="&#xe940;" glyph-name="mbri-laptop" d="M192 746.667c-11.776 0-21.333-9.557-21.333-21.333v-469.333c0-27.819 42.667-28.587 42.667 0v448h597.333v-448c0-28.672 42.667-27.989 42.667 0v469.333c0 11.776-9.557 21.333-21.333 21.333zM149.333 832c-35.072 0-64-28.928-64-64v-512c0-28.587 43.093-28.16 42.667 0v512c0 12.203 9.131 21.333 21.333 21.333h725.333c12.203 0 21.333-9.131 21.333-21.333v-512c0-28.501 42.667-27.989 42.667 0v512c0 35.072-28.928 64-64 64zM21.333 192c-11.776 0-21.333-9.557-21.333-21.333 0-58.709 47.957-106.667 106.667-106.667h810.667c58.709 0 106.667 47.957 106.667 106.667 0 11.776-9.557 21.333-21.333 21.333zM51.413 149.333h921.173c-9.259-23.808-27.861-42.667-55.253-42.667h-810.667c-27.392 0-45.995 18.859-55.253 42.667z" />
<glyph unicode="&#xe941;" glyph-name="mbri-layers" d="M874.667 746.667c-14.507 0-21.333-10.581-21.333-21.333s6.912-21.333 21.333-21.333h85.333c12.203 0 21.333-9.131 21.333-21.333v-682.667c0-12.203-9.131-21.333-21.333-21.333h-682.667c-12.203 0-21.333 9.131-21.333 21.333v85.333c0.213 14.421-10.581 21.333-21.333 21.333s-21.547-6.912-21.333-21.333v-85.333c0-35.072 28.928-64 64-64h682.667c35.072 0 64 28.928 64 64v682.667c0 35.072-28.928 64-64 64zM64 960c-35.072 0-64-28.928-64-64v-682.667c0-35.072 28.928-64 64-64h682.667c35.072 0 64 28.928 64 64v682.667c0 35.072-28.928 64-64 64zM64 917.333h682.667c12.203 0 21.333-9.131 21.333-21.333v-682.667c0-12.203-9.131-21.333-21.333-21.333h-682.667c-12.203 0-21.333 9.131-21.333 21.333v682.667c0 12.203 9.131 21.333 21.333 21.333z" />
<glyph unicode="&#xe942;" glyph-name="mbri-left-right" d="M817.365 143.787l112.64 112.811-112.64 111.36c-19.797 19.285 9.984 51.2 30.293 30.293l127.744-126.464c7.979-7.936 7.979-22.4 0-30.293l-127.659-128c-20.821-20.907-50.347 10.155-30.293 30.293zM832 618.667h-682.667c-28.16 0-27.563 42.667 0 42.667h682.667c28.331 0 27.733-42.667 0-42.667zM163.968 752l-112.64-112.768 112.64-111.36c19.797-19.285-10.027-51.2-30.293-30.293l-127.701 126.421c-7.936 7.936-7.936 22.4 0 30.293l127.701 128c20.821 20.907 50.347-10.155 30.293-30.293zM149.333 277.333h682.667c28.587 0 27.52-42.667 0-42.667h-682.667c-28.8 0-27.605 42.667 0 42.667z" />
<glyph unicode="&#xe943;" glyph-name="mbri-left" d="M512 0c-0.171 5.547-2.475 11.435-6.4 15.36l-454.144 453.973 453.888 453.973c19.968 19.2-10.965 50.219-30.165 30.208l-468.907-468.907c-8.363-8.405-8.363-21.888 0-30.208l469.163-469.248c12.715-13.013 36.565-5.205 36.565 14.848zM1024 469.333c0-11.819-9.515-21.333-21.333-21.333h-853.333c-11.819 0-21.333 9.515-21.333 21.333s9.515 21.333 21.333 21.333h853.333c11.819 0 21.333-9.515 21.333-21.333z" />
<glyph unicode="&#xe944;" glyph-name="mbri-letter" d="M106.667 704c-21.333 0-29.141-27.563-11.861-39.083l341.248-234.496c20.907-14.379 46.080-25.088 75.947-25.088s55.253 10.667 76.16 25.088l341.205 234.496c23.552 15.957-2.56 50.176-24.149 35.157l-341.163-234.581c-16.213-11.093-32-17.493-52.053-17.493s-35.669 6.4-51.797 17.493l-341.248 234.667c-3.499 2.389-8.021 3.755-12.288 3.84zM64 789.333c-35.072 0-64-28.928-64-64v-554.667c0-35.072 28.928-64 64-64h896c35.072 0 64 28.928 64 64v554.667c0 35.072-28.928 64-64 64zM64 746.667h896c12.203 0 21.333-9.131 21.333-21.333v-554.667c0-12.203-9.131-21.333-21.333-21.333h-896c-12.203 0-21.333 9.131-21.333 21.333v554.667c0 12.203 9.131 21.333 21.333 21.333z" />
<glyph unicode="&#xe945;" glyph-name="mbri-like" d="M597.333 917.333c-18.347 0-34.432-2.987-47.915-11.008-13.483-7.979-22.869-20.907-28.075-34.816-10.496-27.904-9.344-60.843-9.344-103.509 0-39.125-8.96-65.579-28.416-94.848-19.499-29.269-50.688-60.715-93.355-103.381-18.773-18.005 10.581-49.792 30.208-30.208 42.667 42.667 75.52 75.221 98.645 109.952 23.211 34.731 35.584 72.277 35.584 118.485 0 42.667 1.109 73.728 6.656 88.491 2.773 7.381 5.419 10.496 9.941 13.227 4.48 2.645 12.373 4.949 26.027 4.949 12.459 0 19.072-2.731 23.893-6.485 4.864-3.84 8.747-9.643 11.861-18.944 6.187-18.603 6.912-49.237 6.912-81.237 0-123.307-40.405-203.819-40.405-203.819-7.040-14.208 3.243-30.848 19.072-30.848h338.176c15.787 0 24.491-24.107 24.491-42.667 0-28.459-30.848-44.928-30.848-44.928-15.701-7.851-15.701-30.293 0-38.144 0 0 30.848-16.469 30.848-44.928s-30.848-44.928-30.848-44.928c-15.701-7.851-15.701-30.293 0-38.144 0 0 30.848-16.469 30.848-44.928s-30.848-44.928-30.848-44.928c-15.701-7.851-15.701-30.293 0-38.144 0 0 30.848-16.469 30.848-44.928 0-14.208-5.717-22.613-17.152-30.293-11.52-7.595-29.013-12.373-46.848-12.373h-512c-28.16 0-27.904-42.667 0-42.667h512c24.875 0 49.92 5.888 70.485 19.627 20.565 13.653 36.181 37.248 36.181 65.707 0 30.080-14.507 50.432-28.843 64 14.379 13.568 28.843 33.92 28.843 64s-14.507 50.432-28.843 64c14.379 13.568 28.843 33.92 28.843 64s-14.507 50.432-28.843 64c14.379 13.568 28.843 33.92 28.843 64 0 24.875-6.187 45.653-17.579 60.843s-28.544 24.491-46.379 24.491h-311.040c12.672 31.573 33.707 92.501 33.707 192 0 32 0.725 65.365-9.088 94.72-4.907 14.72-13.013 28.885-26.155 39.125s-30.549 15.488-50.091 15.488zM64 576c-35.072 0-64-28.928-64-64v-469.333c0-35.072 28.928-64 64-64h213.333c35.072 0 64 28.928 64 64v469.333c0 35.072-28.928 64-64 64zM64 533.333h213.333c12.203 0 21.333-9.131 21.333-21.333v-469.333c0-12.203-9.131-21.333-21.333-21.333h-213.333c-12.203 0-21.333 9.131-21.333 21.333v469.333c0 12.203 9.131 21.333 21.333 21.333z" />
<glyph unicode="&#xe946;" glyph-name="mbri-link" d="M768 192c141.44 0 256 114.56 256 256s-114.56 256-256 256h-106.667c-14.421 0.213-21.333-10.581-21.333-21.333s6.912-21.547 21.333-21.333h106.667c118.613 0 213.333-94.72 213.333-213.333s-94.72-213.333-213.333-213.333h-128c-118.613 0-213.333 94.72-213.333 213.333v21.333c0.213 14.421-10.581 21.333-21.333 21.333s-21.547-6.912-21.333-21.333v-21.333c0-141.44 114.56-256 256-256zM256 704c-141.44 0-256-114.56-256-256s114.56-256 256-256h106.667c14.421-0.213 21.333 10.581 21.333 21.333s-6.912 21.547-21.333 21.333h-106.667c-118.613 0-213.333 94.72-213.333 213.333s94.72 213.333 213.333 213.333h128c118.613 0 213.333-94.72 213.333-213.333v-21.333c-0.213-14.421 10.581-21.333 21.333-21.333s21.547 6.912 21.333 21.333v21.333c0 141.44-114.56 256-256 256z" />
<glyph unicode="&#xe947;" glyph-name="mbri-lock" d="M490.667 960c-129.365 0-234.667-105.301-234.667-234.667v-85.333c0-28.672 42.667-27.648 42.667 0v85.333c0 106.24 85.76 192 192 192s192-85.76 192-192v-85.333c0-28.501 42.667-27.989 42.667 0v85.333c0 129.365-105.301 234.667-234.667 234.667zM490.667 405.333c-58.667 0-106.667-48-106.667-106.667 0-32.853 17.323-61.653 42.667-81.664v-46.336c0-35.072 28.928-64 64-64s64 28.928 64 64v46.421c25.344 20.053 42.667 48.768 42.667 81.579 0 58.667-48 106.667-106.667 106.667zM490.667 362.667c35.584 0 64-28.416 64-64 0-22.869-12.203-43.819-32-55.253-6.613-3.84-10.667-10.88-10.667-18.517v-54.187c0-12.203-9.131-21.333-21.333-21.333s-21.333 9.131-21.333 21.333v54.187c0 7.595-4.053 14.677-10.667 18.475-19.797 11.435-32 32.427-32 55.339 0 35.584 28.416 64 64 64zM192 576c-35.072 0-64-28.928-64-64v-512c0-35.072 28.928-64 64-64h597.333c35.072 0 64 28.928 64 64v512c0 35.072-28.928 64-64 64zM192 533.333h597.333c12.203 0 21.333-9.131 21.333-21.333v-512c0-12.203-9.131-21.333-21.333-21.333h-597.333c-12.203 0-21.333 9.131-21.333 21.333v512c0 12.203 9.131 21.333 21.333 21.333z" />
<glyph unicode="&#xe948;" glyph-name="mbri-login" d="M448 661.333c-19.2 0-28.843-23.040-15.104-36.437l155.605-155.563-155.605-155.563c-20.907-20.139 10.069-51.115 30.208-30.208l170.667 170.667c8.32 8.363 8.32 21.845 0 30.208l-170.667 170.667c-4.011 4.096-9.387 6.229-15.104 6.229zM21.333 490.667h426.667c11.819 0 21.333-9.515 21.333-21.333s-9.515-21.333-21.333-21.333h-426.667c-11.819 0-21.333 9.515-21.333 21.333s9.515 21.333 21.333 21.333zM277.333 960c-35.072 0-64-28.928-64-64v-213.333c0-28.373 42.667-28.032 42.667 0v213.333c0 12.203 9.131 21.333 21.333 21.333h682.667c12.203 0 21.333-9.131 21.333-21.333v-896c0-12.203-9.131-21.333-21.333-21.333h-682.667c-12.203 0-21.333 9.131-21.333 21.333v256c0 28.501-42.667 27.861-42.667 0v-256c0-35.072 28.928-64 64-64h682.667c35.072 0 64 28.928 64 64v896c0 35.072-28.928 64-64 64z" />
<glyph unicode="&#xe949;" glyph-name="mbri-logout" d="M192 277.333c19.029 0 27.989 23.467 15.104 36.437l-155.605 155.563 155.605 155.563c19.029 18.347-12.203 48.896-30.208 30.208l-170.667-170.667c-8.32-8.363-8.32-21.845 0-30.208l170.667-170.667c4.053-4.139 9.387-6.229 15.104-6.229zM576 448h-426.667c-11.819 0-21.333 9.515-21.333 21.333s9.515 21.333 21.333 21.333h426.667c11.819 0 21.333-9.515 21.333-21.333s-9.515-21.333-21.333-21.333zM320 960c-35.072 0-64-28.928-64-64v-213.333c0-28.373 42.667-28.032 42.667 0v213.333c0 12.203 9.131 21.333 21.333 21.333h640c12.203 0 21.333-9.131 21.333-21.333v-896c0-12.203-9.131-21.333-21.333-21.333h-640c-12.203 0-21.333 9.131-21.333 21.333v256c0 28.501-42.667 27.861-42.667 0v-256c0-35.072 28.928-64 64-64h640c35.072 0 64 28.928 64 64v896c0 35.072-28.928 64-64 64z" />
</font>
</defs>
</svg>
